2 сезон

iTunes

WEBRip

1

2 сезон

iTunes

1 сезон

1 сезон

RePack

30

Новинка

ВАЖНО

ИГРА 18+

pack

RePack

MK11
pack

Легкие деньги

RePack

jed

RePack

fifa19

RePack

RDR2

RePack

NEED FOR SPEED™ PAYBACK

4 сезон

9 сезон

Бесстыжие 9 сезон

Все сериалы

все сериалы на PB.wtf

RePack

FAR CRY 5

Anonymous, доброй ночи, мы не успеваем собрать деньги на оплату серверов за февраль, помогите нам пожалуйста в это трудное время. В качестве благодарности мы отключим Вам всю рекламу на сайте (укажите свой ник в строку Ваше имя)!

×
  
Magnet ссылка

Достать ножи / Ножі наголо / Knives Out (Райан Джонсон) [2019, детектив, комедия, драма, криминал, WEB-DL 1080p] [Ukr DUB] piratbit.org

Достать ножи через торрент piratbit.org

Размер: 9.43 GB | Добавлен: 1 год назад | Торрент скачан:64 раза
Скачать  

09-02-2020 18:20 Достать ножи Скачать торрент  

Достать ножи / Ножі наголо / Knives Out
Год выпуска: 2019
Страна: США
Жанр: детектив, комедия, драма, криминал
Продолжительность: 02:10:05
✦ Перевод: Украинский (дублированный)

Субтитры: english

Режиссер: Райан Джонсон

В ролях: Дэниэл Крэйг, Ана де Армас, Крис Эванс, Джейми Ли Кёртис, Майкл Шеннон, Дон Джонсон, Тони Коллетт, Лакит Стэнфилд, Кристофер Пламмер, Кэтрин Лэнгфорд

Описание: Когда сразу после празднования 85-летия известного автора криминальных романов Харлана Тромби виновника торжества находят мёртвым, за расследование берётся обаятельный и дотошный частный детектив Бенуа Блан. Ему предстоит распутать тугую сеть уловок и корыстной лжи, которой его опутывают члены неблагополучной семьи Харлана и преданный ему персонал.

rating

Качество: WEB-DL 1080p
Формат: MKV
Видео: AVC, 1920x1040, 29.976 fps, ~10 000 kbps avg
Аудио 1: 48 kHz, AC3 Dolby Digital, 2 ch, ~192 kbps - Ukr
Аудио 2: 48 kHz, E-AC3 Dolby Digital, 6 ch, ~640 kbps - Eng
General
Complete name : Knives Out (2019) WEB-DL 1080p AMZN [ukr, eng] [ViDeO_Hurtom].mkv
Format : Matroska
Format version : Version 4
File size : 9.43 GiB
Duration : 2 h 10 min
Overall bit rate : 10.4 Mb/s
Movie name : Ножі наголо / Knives Out (2019)
Encoded date : UTC 2020-02-08 10:57:28
Writing application : mkvmerge v30.1.0 ('Forever And More') 64-bit
Writing library : libebml v1.3.6 + libmatroska v1.4.9
Cover : Yes
Attachments : cover.jpg

Video
ID : 1
Format : AVC
Format/Info : Advanced Video Codec
Format profile : High@L4
Format settings : CABAC / 4 Ref Frames
Format settings, CABAC : Yes
Format settings, RefFrames : 4 frames
Codec ID : V_MPEG4/ISO/AVC
Duration : 2 h 10 min
Bit rate mode : Constant
Bit rate : 10 000 kb/s
Width : 1 920 pixels
Height : 1 040 pixels
Display aspect ratio : 1.85:1
Frame rate mode : Constant
Frame rate : 23.976 (24000/1001) FPS
Color space : YUV
Chroma subsampling : 4:2:0
Bit depth : 8 bits
Scan type : Progressive
Bits/(Pixel*Frame) : 0.209
Stream size : 8.67 GiB (92%)
Default : Yes
Forced : No
Color range : Limited
Color primaries : BT.709
Transfer characteristics : BT.709
Matrix coefficients : BT.709

Audio #1
ID : 2
Format : AC-3
Format/Info : Audio Coding 3
Commercial name : Dolby Digital
Codec ID : A_AC3
Duration : 2 h 10 min
Bit rate mode : Constant
Bit rate : 192 kb/s
Channel(s) : 2 channels
Channel layout : L R
Sampling rate : 48.0 kHz
Frame rate : 31.250 FPS (1536 SPF)
Bit depth : 16 bits
Compression mode : Lossy
Stream size : 179 MiB (2%)
Title : AC3 2.0 | 192
Language : Ukrainian
Service kind : Complete Main
Default : Yes
Forced : No

Audio #2
ID : 3
Format : E-AC-3
Format/Info : Enhanced AC-3
Commercial name : Dolby Digital Plus
Codec ID : A_EAC3
Duration : 2 h 10 min
Bit rate mode : Constant
Bit rate : 640 kb/s
Channel(s) : 6 channels
Channel layout : L R C LFE Ls Rs
Sampling rate : 48.0 kHz
Frame rate : 31.250 FPS (1536 SPF)
Compression mode : Lossy
Stream size : 596 MiB (6%)
Title : E-AC3 5.1 | 640
Language : English
Service kind : Complete Main
Default : No
Forced : No

Text #1
ID : 4
Format : UTF-8
Codec ID : S_TEXT/UTF8
Codec ID/Info : UTF-8 Plain Text
Duration : 2 h 2 min
Bit rate : 85 b/s
Count of elements : 2616
Stream size : 76.2 KiB (0%)
Title : Full
Language : English
Default : No
Forced : No

Text #2
ID : 5
Format : UTF-8
Codec ID : S_TEXT/UTF8
Codec ID/Info : UTF-8 Plain Text
Duration : 2 h 2 min
Bit rate : 89 b/s
Count of elements : 2795
Stream size : 79.8 KiB (0%)
Title : SDH
Language : English
Default : No
Forced : No

Menu
00:00:00.000 : en:Studio Logo
00:00:39.000 : en:Scene 2
00:02:16.000 : en:Title Sequence
00:02:21.000 : en:Scene 4
00:06:49.000 : en:Scene 5
00:12:48.000 : en:Scene 6
00:18:31.000 : en:Scene 7
00:25:12.000 : en:Scene 8
00:31:49.000 : en:Scene 9
00:38:52.000 : en:Scene 10
00:43:01.000 : en:Scene 11
00:49:44.000 : en:Scene 12
00:54:28.000 : en:Scene 13
01:00:14.000 : en:Scene 14
01:04:54.000 : en:Scene 15
01:10:26.000 : en:Scene 16
01:15:37.000 : en:Scene 17
01:21:55.000 : en:Scene 18
01:28:50.000 : en:Scene 19
01:36:15.000 : en:Scene 20
01:42:17.000 : en:Scene 21
01:46:54.000 : en:Scene 22
01:52:17.000 : en:Scene 23
02:01:45.000 : en:Scene 24
02:05:13.000 : en:End Credits
скриншот   скриншот   скриншот  
piratbit.org



Скачать Достать ножи через торрент https://i111.fastpic.ru/big/2020/0118/11/d8aed840e56c0acc40cc666ee67ef611.jpg Скачать фильм Достать ножи через торрент бесплантно в хорошем качестве Описание: Когда сразу после празднования 85-летия известного автора криминальных романов Харлана Тромби виновника торжества находят ... 5.5 10 4
Торрент: Зарегистрирован [2020-02-09 18:20] · скачан: 64 раз
Статус: T временная
Размер: 9.43 GB
Как cкачать? Как скачать Достать ножи через торрент | UTorrent

% Раздел Тема Автор DL S | L
T Фильмы с украинским озвучиванием [ 2 GB ] Достать ножи / Ножі наголо / Knives Out [2019 WEB-DLRip] [Ukr DUB] killermax2013 Скачать
1 | 0

28-11-2019 20:33  

Отключить всю рекламу на сайте

    Дорогой пользователь! Огромная просьба, поблагодарите релизера, оцените раздачу и оставьте свои комментарий, если Вы скачали Достать ножи через торрент бесплатно! Внесите свою лепту в развитие PiratBit!
    Комментировать посты могут только пользователи прошедшие не сложную регистрацию
    Показать сообщения:    

    Достать ножи через торрент
    Скачать бесплатно Достать ножи
    Достать ножи скачать торрент
    Достать ножи смотреть онлайн
    Cкачать фильм Достать ножи бесплатно
    Достать ножи скачать торрент в хорошем качестве
    Достать ножи смотреть онлайн бесплатно в хорошем качестве


    Вы не можете начинать темы
    Вы не можете отвечать на сообщения
    Вы не можете редактировать свои сообщения
    Вы не можете удалять свои сообщения
    Вы не можете голосовать в опросах
    Вы не можете прикреплять файлы к сообщениям
    Вы можете скачивать файлы