2 сезон

iTunes

WEBRip

1

2 сезон

iTunes

1 сезон

1 сезон

RePack

30

Новинка

ВАЖНО

ИГРА 18+

pack

RePack

MK11
pack

Легкие деньги

RePack

jed

RePack

fifa19

RePack

RDR2

RePack

NEED FOR SPEED™ PAYBACK

4 сезон

9 сезон

Бесстыжие 9 сезон

Все сериалы

все сериалы на PB.wtf

RePack

FAR CRY 5

Anonymous, добрый день, мы не успеваем собрать деньги на оплату серверов за февраль, помогите нам пожалуйста в это трудное время. В качестве благодарности мы отключим Вам всю рекламу на сайте (укажите свой ник в строку Ваше имя)!

×
  
Magnet ссылка

92-я церемония вручения премии "Оскар" / The 92nd Annual Academy Awards (Гленн Уайсс) [2020, ТВ-Шоу, DVB, 576i] [Ukr] piratbit.org

92-я церемония вручения премии "Оскар" через торрент piratbit.org

Размер: 4.84 GB | Добавлен: 1 год назад | Торрент скачан:14 раз
Скачать  

10-02-2020 09:06 92-я церемония вручения премии "Оскар" Скачать торрент  

92-я церемония вручения премии "Оскар" / The 92nd Annual Academy Awards (Гленн Уайсс)

Год выпуска: 2020
Страна: США
Жанр: Церемония Награждения
Продолжительность: 05:08:25

Ведущие студии: Алена Винницкая, Тимур Мирошниченко и Монро
Комментаторы: переводчик-синхронист Юрий Физер и Анатолий Анатолич
Язык Комментария: Украинский (Многоголосый)

Режиссер: Гленн Уайсс

Описание: Эксклюзивная трансляция «Оскара»® на телеканале «Украина» начнется, когда селебритиз выйдут на самую известную в мире красную дорожку. Зрители канала «Украина» первыми увидят невероятные наряды, которые звезды тщательно выбирают задолго до самого события. Ведущие познакомят зрителей с картинами-номинантами на «Оскар»®, а журналисты раскроют все подробности церемонии: в серии сюжетов расскажут о подготовке к масштабному действию, закулисных интригах и скандалах кинопремии, самых ярких звездных появлениях и трендах последних годов. В течение ночи грандиозное событие будет комментировать ведущий программы «Ранок з Україною» Анатолий Анатолич, а переводчиком-синхронистом станет Юрий Физер, который уже 5 лет подряд комментирует церемонию в прямом эфире канала «Украина». (с)


Автор рипа/записи: chedder_nukakby
Качество: DVB (тип развёртки MBAFF)
Формат видео: MKV
Видео: AVC/H.264, 720 x 576i @ 1044 x 576 (16:9), 25fps, 2010 kbps avg
Аудио: 48 kHz, MPEG-1 Layer 2, 2 ch, ~192.00 kbps

Код:

Формат                                   : Matroska
Версия формата                           : Version 2
Размер файла                             : 4,84 Гбайт
Продолжительность                        : 5 ч. 8 м.
Общий поток                              : 2247 Кбит/сек
Программа кодирования                    : Lavf54.63.104
Библиотека кодирования                   : Lavf54.63.104

Видео
Идентификатор                            : 1
Формат                                   : AVC
Формат/Информация                        : Advanced Video Codec
Профиль формата                          : Main@L3
Параметр CABAC формата                   : Да
Параметр RefFrames формата               : 4 кадра
Идентификатор кодека                     : V_MPEG4/ISO/AVC
Продолжительность                        : 5 ч. 8 м.
Битрейт                                  : 2010 Кбит/сек
Ширина                                   : 720 пикселей
Высота                                   : 576 пикселей
Соотношение сторон                       : 16:9
Соотношение сторон в оригинале           : 16:9
Режим частоты кадров                     : Постоянный
Частота кадров                           : 25,000 кадров/сек
Стандарт вещания                         : PAL
Цветовое пространство                    : YUV
Субдискретизация насыщенности            : 4:2:0
Битовая глубина                          : 8 бит
Тип развёртки                            : MBAFF
Метод сохранения типа развёртки          : Чередующиеся поля
Порядок развёртки                        : Верхнее поле первое
Бит/(Пиксели*Кадры)                      : 0.194
Размер потока                            : 4,33 Гбайт (89%)
Default                                  : Нет
Forced                                   : Нет
Цветовой диапазон                        : Limited
Основные цвета                           : BT.601 PAL
Характеристики трансфера                 : BT.470 System B, BT.470 System G
Коэффициенты матрицы                     : BT.470 System B, BT.470 System G

Аудио
Идентификатор                            : 2
Формат                                   : MPEG Audio
Версия формата                           : Version 1
Профиль формата                          : Layer 2
Идентификатор кодека                     : A_MPEG/L2
Идентификатор кодека/Подсказка           : MP2
Продолжительность                        : 5 ч. 8 м.
Вид битрейта                             : Постоянный
Битрейт                                  : 192 Кбит/сек
Каналы                                   : 2 канала
Частота                                  : 48,0 КГц
Метод сжатия                             : С потерями
Размер потока                            : 424 Мбайт (9%)
Язык                                     : Ukrainian
Default                                  : Да
Forced                                   : Нет

скриншот  скриншот  скриншот  
piratbit.org



Скачать 92-я церемония вручения премии "Оскар" через торрент https://i111.fastpic.ru/big/2020/0210/eb/74606591a4303ef0ebb509491e8ce9eb.png Скачать фильм 92-я церемония вручения премии "Оскар" через торрент бесплантно в хорошем качестве Описание: Эксклюзивная трансляция «Оскара»® на телеканале «Украина» начнется, когда селебритиз выйдут на самую известную в мире красную ... 10 10 2
Торрент: Зарегистрирован [2020-02-10 09:06] · скачан: 14 раз
Статус: √ проверено
Размер: 4.84 GB
Как cкачать? Как скачать 92-я церемония вручения премии "Оскар" через торрент | UTorrent

28-11-2019 20:33  

Отключить всю рекламу на сайте


    Дорогой пользователь! Огромная просьба, поблагодарите релизера, оцените раздачу и оставьте свои комментарий, если Вы скачали 92-я церемония вручения премии "Оскар" через торрент бесплатно! Внесите свою лепту в развитие PiratBit!
    Комментировать посты могут только пользователи прошедшие не сложную регистрацию
    Показать сообщения:    

    92-я церемония вручения премии "Оскар" через торрент
    Скачать бесплатно 92-я церемония вручения премии "Оскар"
    92-я церемония вручения премии "Оскар" скачать торрент
    92-я церемония вручения премии "Оскар" смотреть онлайн
    Cкачать фильм 92-я церемония вручения премии "Оскар" бесплатно
    92-я церемония вручения премии "Оскар" скачать торрент в хорошем качестве
    92-я церемония вручения премии "Оскар" смотреть онлайн бесплатно в хорошем качестве


    Вы не можете начинать темы
    Вы не можете отвечать на сообщения
    Вы не можете редактировать свои сообщения
    Вы не можете удалять свои сообщения
    Вы не можете голосовать в опросах
    Вы не можете прикреплять файлы к сообщениям
    Вы можете скачивать файлы