Ссылка на приватное зеркало всего за 1$. Внимание количество ограничено!!!

iTunes

iTunes

iTunes

1

iTunes

iTunes

iTunes

iTunes

iTunes

30
pack

Новость дня

ВАЖНО

!!Акция!!

Alien_RageХит недели

RePack

Resident Evil 21

ИГРА 18+

pack

RePack

jed

!!Акция!!

Alien_Rage

RePack

fifa19

RePack

Assassins Creed: Odyssey

RePack

NEED FOR SPEED™ PAYBACK

4 сезон

9 сезон

Бесстыжие 9 сезон

Все сериалы

все сериалы на PB.wtf

RePack

FAR CRY 5
  

Джуманджи: Новый уровень / Jumanji: The Next Level (Джейк Кэздан) [2019, фэнтези, боевик, комедия, приключения, BDRip 1080p] DUB (rus, ukr) [Лицензия] piratbit.org

Джуманджи: Новый уровень через торрент piratbit.org

Раздают: 7 [ 11 KB/s ]
Размер: 13.96 GB | Добавлен: 19 д. назад | Торрент скачан:216 раз
Скачать  

13-02-2020 18:41 Джуманджи: Новый уровень Скачать торрент  

Джуманджи: Новый уровень | Jumanji: The Next Level
Год выпуска: 2019
Страна: США
Студия: Hartbeat Productions, Matt Tolmach Productions, Seven Bucks Productions
Жанр: фэнтези, боевик, комедия, приключения
Продолжительность: 02:03:10
Перевод: Дублированный | Лицензия
Субтитры: Русские (Forced, full), украинские (Full), английские

Режиссер: Джейк Кэздан

rating

В ролях: Карен Гиллан, Дуэйн Джонсон, Дэнни ДеВито, Мэдисон Айсмен, Джек Блэк, Аквафина, Эшли Скотт, Кевин Харт, Ник Джонас, Риз Дэрби

Описание: Однажды четыре обычных американских подростка находят необычную игру. Вся необычность этой игры состояла в том, что она была живой. Внезапно игра затягивает подростков внутрь. Внутрь мира, где всё по-другому. Где они не простые подростки, а настоящие герои, обладающие невероятные и удивительными способностями, которые могут помочь спасти игровой мир. Однако здесь царя свои правила, которым приходится подчиняться. Но, с другой стороны, это же всего лишь игра, в которой можно схитрить, можно нарушить правила, можно обойти привычные законы. Осталось только найти, как это сделать без ущерба жизни.

Качество: BDRip 1080p
Формат: MKV

Видео: MPEG-4 AVC, 1920x804, 14.3 Mbit/s, 23.976 fps
Аудио #01: 48 kHz, AC3, 5.1, 640 Kbps | Дублированный | RUS |
Аудио #02: 48 kHz, AC3, 5.1, 640 Kbps | Дублированный | UKR |
Аудио #02: 48 kHz, AC3, 5.1, 640 Kbps | Оригинал | ENG |
скриншот  скриншот  скриншот  скриншот  скриншот  

General
Unique ID : 96184362793008928351484935982644082992 (0x485C6F380417C4E99CEC6AD4AE6A3930)
Complete name : E:Video111Jumanji.The.Next.Level.2019.Lic.BDRip.1080p.seleZen.mkv
Format : Matroska
Format version : Version 4
File size : 14.0 GiB
Duration : 2 h 3 min
Overall bit rate : 16.2 Mb/s
Movie name : Jumanji The Next Level 2019 from селезень
Encoded date : UTC 2020-03-20 16:59:30
Writing application : mkvmerge v40.0.0 ('Old Town Road + Pony') 64-bit
Writing library : libebml v1.3.9 + libmatroska v1.5.2

Video
ID : 1
Format : AVC
Format/Info : Advanced Video Codec
Format profile : High@L4.1
Format settings : CABAC / 5 Ref Frames
Format settings, CABAC : Yes
Format settings, Reference : 5 frames
Codec ID : V_MPEG4/ISO/AVC
Duration : 2 h 3 min
Bit rate : 14.3 Mb/s
Width : 1 920 pixels
Height : 804 pixels
Display aspect ratio : 2.40:1
Frame rate mode : Constant
Frame rate : 23.976 (24000/1001) FPS
Color space : YUV
Chroma subsampling : 4:2:0
Bit depth : 8 bits
Scan type : Progressive
Bits/(Pixel*Frame) : 0.386
Stream size : 12.3 GiB (88%)
Title : DON
Writing library : x264 core 159 r2991 1771b55
Encoding settings : cabac=1 / ref=5 / deblock=1:-3:-3 / analyse=0x3:0x133 / me=umh / subme=10 / psy=1 / psy_rd=1.00:0.00 / mixed_ref=1 / me_range=32 / chroma_me=1 / trellis=2 / 8x8dct=1 / cqm=0 / deadzone=21,11 / fast_pskip=0 / chroma_qp_offset=-2 / threads=12 / lookahead_threads=2 / sliced_threads=0 / nr=0 / decimate=0 / interlaced=0 / bluray_compat=0 / constrained_intra=0 / bframes=9 / b_pyramid=2 / b_adapt=2 / b_bias=0 / direct=3 / weightb=1 / open_gop=0 / weightp=2 / keyint=250 / keyint_min=23 / scenecut=40 / intra_refresh=0 / rc=crf / mbtree=0 / crf=15.5 / qcomp=0.61 / qpmin=0 / qpmax=69 / qpstep=4 / ip_ratio=1.35 / pb_ratio=1.25 / aq=3:0.88
Language : English
Default : Yes
Forced : No

Audio #1
ID : 2
Format : AC-3
Format/Info : Audio Coding 3
Commercial name : Dolby Digital
Codec ID : A_AC3
Duration : 2 h 3 min
Bit rate mode : Constant
Bit rate : 640 kb/s
Channel(s) : 6 channels
Channel layout : L R C LFE Ls Rs
Sampling rate : 48.0 kHz
Frame rate : 31.250 FPS (1536 SPF)
Compression mode : Lossy
Stream size : 564 MiB (4%)
Title : Dub [License]
Language : Russian
Service kind : Complete Main
Default : Yes
Forced : Yes

Audio #2
ID : 3
Format : AC-3
Format/Info : Audio Coding 3
Commercial name : Dolby Digital
Codec ID : A_AC3
Duration : 2 h 3 min
Bit rate mode : Constant
Bit rate : 640 kb/s
Channel(s) : 6 channels
Channel layout : L R C LFE Ls Rs
Sampling rate : 48.0 kHz
Frame rate : 31.250 FPS (1536 SPF)
Compression mode : Lossy
Stream size : 564 MiB (4%)
Title : Dub [License]
Language : Ukrainian
Service kind : Complete Main
Default : No
Forced : No

Audio #3
ID : 4
Format : AC-3
Format/Info : Audio Coding 3
Commercial name : Dolby Digital
Codec ID : A_AC3
Duration : 2 h 3 min
Bit rate mode : Constant
Bit rate : 640 kb/s
Channel(s) : 6 channels
Channel layout : L R C LFE Ls Rs
Sampling rate : 48.0 kHz
Frame rate : 31.250 FPS (1536 SPF)
Compression mode : Lossy
Stream size : 564 MiB (4%)
Title : Original
Language : English
Service kind : Complete Main
Default : No
Forced : No

Text #1
ID : 5
Format : UTF-8
Codec ID : S_TEXT/UTF8
Codec ID/Info : UTF-8 Plain Text
Duration : 2 h 2 min
Bit rate : 0 b/s
Count of elements : 3
Stream size : 95.0 Bytes (0%)
Title : Forced
Language : Russian
Default : Yes
Forced : Yes

Text #2
ID : 6
Format : UTF-8
Codec ID : S_TEXT/UTF8
Codec ID/Info : UTF-8 Plain Text
Duration : 2 h 2 min
Bit rate : 79 b/s
Count of elements : 1604
Stream size : 71.3 KiB (0%)
Title : Full
Language : Russian
Default : No
Forced : No

Text #3
ID : 7
Format : UTF-8
Codec ID : S_TEXT/UTF8
Codec ID/Info : UTF-8 Plain Text
Duration : 2 h 1 min
Bit rate : 75 b/s
Count of elements : 1571
Stream size : 67.2 KiB (0%)
Title : Full
Language : Ukrainian
Default : No
Forced : No

Text #4
ID : 8
Format : UTF-8
Codec ID : S_TEXT/UTF8
Codec ID/Info : UTF-8 Plain Text
Duration : 1 h 52 min
Bit rate : 58 b/s
Count of elements : 1719
Stream size : 48.5 KiB (0%)
Title : Full
Language : English
Default : No
Forced : No

Menu
00:00:00.000 : en:Chapter01
00:09:18.349 : en:Chapter02
00:17:40.476 : en:Chapter03
00:23:10.681 : en:Chapter04
00:31:12.287 : en:Chapter05
00:38:19.130 : en:Chapter06
00:42:39.265 : en:Chapter07
00:48:52.972 : en:Chapter08
00:57:11.428 : en:Chapter09
01:06:03.001 : en:Chapter10
01:13:16.142 : en:Chapter11
01:21:29.093 : en:Chapter12
01:28:33.725 : en:Chapter13
01:32:39.512 : en:Chapter14
01:37:05.403 : en:Chapter15
01:45:00.586 : en:Chapter16

piratbit.org



Скачать Джуманджи: Новый уровень через торрент https://img10.lostpic.net/2020/03/04/21f367e6d25c3c66e25da12a286b8266.jpg Скачать фильм Джуманджи: Новый уровень через торрент бесплантно в хорошем качестве Описание: Однажды четыре обычных американских подростка находят необычную игру. Вся необычность этой игры состояла в том, что она была ... 9.9 10 94
Info! Золотая раздача, скачанное не засчитывается.
Торрент: Зарегистрирован [2020-03-21 19:46] · скачан: 216 раз
Статус: √ проверено
Размер: 13.96 GB
Как cкачать? Как скачать Джуманджи: Новый уровень через торрент | qTorrent

% Раздел Тема Автор DL S | L
Ultra HD (UHD: 2K, 4K, 8K) — видео сверхвысокой чёткости [ 51.57 GB ] Джуманджи: Новый уровень / Jumanji: The Next Level [2019 UHD Blu-ray EUR 2160p] DUB [] sheker187 Скачать
1 | 0
Ultra HD (UHD: 2K, 4K, 8K) — видео сверхвысокой чёткости [ 15.59 GB ] Джуманджи: Новый уровень / Jumanji: The Next Level [2019 UHD BDRip 2160p ] DUB [] bober100 Скачать
3 | 0
Ultra HD (UHD: 2K, 4K, 8K) — видео сверхвысокой чёткости [ 15.29 GB ] Джуманджи: Новый уровень / Jumanji: The Next Level [2019 UHD BDRip 2160p] DUB [] sheker187 Скачать
4 | 1
Фильмы 2019-2020 [DVDrip, WEB-DLRip, HDrip] (DUB, MVO) [ 2.18 GB ] Джуманджи: Новый уровень / Jumanji: The Next Level [2019 BDRip] - [] Twi7ter Скачать
67 | 3
Фильмы 2019-2020 [DVDrip, WEB-DLRip, HDrip] (DUB, MVO) [ 1.46 GB ] Джуманджи: Новый уровень / Jumanji: The Next Level [2019 BDRip] - [] Twi7ter Скачать
27 | 0
Ultra HD (UHD: 2K, 4K, 8K) — видео сверхвысокой чёткости [ 47.2 GB ] Джуманджи: Новый уровень / Jumanji: The Next Level [2019 UHD BDRemux 2160p] DUB [] bober100 Скачать
1 | 0
Фильмы 2019-2020 [DVDrip, WEB-DLRip, HDrip] (DUB, MVO) [ 753 MB ] Джуманджи: Новый уровень / Jumanji: The Next Level [2019 HDRip] DUB [ BD 4K EUR] bober100 Скачать
1 | 0


Последний раз редактировалось: bober100 (2020-03-04 19:27), всего редактировалось 5 раз(а)

28-11-2019 20:33  

Отключить всю рекламу на сайте

    Дорогой пользователь! Огромная просьба, поблагодарите релизера, оцените раздачу и оставьте свои комментарий, если Вы скачали Джуманджи: Новый уровень через торрент бесплатно! Внесите свою лепту в развитие PiratBit!
    Комментировать посты могут только пользователи прошедшие не сложную регистрацию
    Показать сообщения:    

    Джуманджи: Новый уровень через торрент
    Скачать бесплатно Джуманджи: Новый уровень
    Джуманджи: Новый уровень скачать торрент
    Джуманджи: Новый уровень смотреть онлайн
    Cкачать фильм Джуманджи: Новый уровень бесплатно
    Джуманджи: Новый уровень скачать торрент в хорошем качестве
    Джуманджи: Новый уровень смотреть онлайн бесплатно в хорошем качестве


    Вы не можете начинать темы
    Вы не можете отвечать на сообщения
    Вы не можете редактировать свои сообщения
    Вы не можете удалять свои сообщения
    Вы не можете голосовать в опросах
    Вы не можете прикреплять файлы к сообщениям
    Вы можете скачивать файлы