Ссылка на приватное зеркало нашего сайта всего за 1$. Внимание количество ограничено!!!

2 сезон

iTunes

1 сезон

1

iTunes

iTunes

iTunes

1 сезон

RePack

30

ИГРА 18+

pack

ВАЖНО

!!Акция!!

Alien_RageХит недели

RePack

MK11
pack

Забери бонус

RePack

jed

!!Акция!!

Alien_Rage

RePack

fifa19

RePack

Assassins Creed: Odyssey

RePack

NEED FOR SPEED™ PAYBACK

4 сезон

9 сезон

Бесстыжие 9 сезон

Все сериалы

все сериалы на PB.wtf

RePack

FAR CRY 5
  

Багдадский вор / The Thief of Bagdad (Людвиг Бергер, Майкл Пауэлл, Тим Уилан) [1940, фэнтези, BDRip 720p] MVO + VO piratbit.org

Багдадский вор через торрент piratbit.org

Размер: 7.24 GB | Добавлен: 8 мес. назад | Торрент скачан:9 раз
Скачать  

14-02-2020 16:20 Багдадский вор Скачать торрент  

Багдадский вор / The Thief of Bagdad
Год выпуска: 1940
Страна: Великобритания
Жанр: фэнтези
Продолжительность: 01:46:07
Перевод: Профессиональный (многоголосый), Любительский
Субтитры: английские, немецкие.

Режиссер: Людвиг Бергер, Майкл Пауэлл, Тим Уилан

rating

В ролях: Конрад Фейдт, Сабу, Джун Дюпрез, Джон Джастин, Рекс Ингрэм, Майлз Маллесон, Мортон Селтен, Мэри Моррис, Брюс Уинстон, Хэй Питри, Аделаида Холл, Рой Эмертон

Описание: В славном городе Багдаде, в великолепном дворце, в атмосфере роскоши и неги жил молодой король Ахмет, наследник великого царя Гарун Аль Рашида. Но не знал он проблем своего народа, потому что между королём и его подданными стоял великий визирь Джафар - колдун и интриган. Именно Джафар предложил скучающему правителю заманчивую идею: переодеться бедняком и инкогнито совершить экскурсию по родному городу.



Качество: BDRip 720p
Формат: MKV

Видео: AVC, 984x720 (4:3), 9000 kbps, 24 fps, 0,529 bpp
Аудио#1: русский / AC3 / 2.0 / 48 kHz / 192 kbps / MVO
Аудио#2: русский / AC3 / 2.0 / 48 kHz / 192 kbps / VO
Аудио#3: английский / AC3 / 2.0 / 48 kHz / 192 kbps
Аудио#4: немецкий / AC3 / 2.0 / 48 kHz / 192 kbps
Релиз от:
скриншот  скриншот  скриншот  скриншот  

скриншот  скриншот  скриншот  скриншот  

*********************************************************
x264 [info]: frame I:1140 Avg QP:16.86 size:177628
x264 [info]: frame P:30893 Avg QP:18.99 size: 87609
x264 [info]: frame B:120792 Avg QP:20.44 size: 35214
*********************************************************
Формат : Matroska
Версия формата : Version 2
Размер файла : 7,24 Гбайт
Продолжительность : 1 ч. 46 м.
Общий поток : 9770 Кбит/сек
Название фильма : = Багдадский вор / The Thief of Bagdad (1940) BDRip 720p - KORSAR =
Дата кодирования : UTC 2020-02-05 22:47:46
Программа кодирования : mkvmerge v5.8.0 ('No Sleep / Pillow') built on Sep 2 2012 15:37:04
Библиотека кодирования : libebml v1.2.3 + libmatroska v1.3.0
Attachment : Yes

Видео
Идентификатор : 1
Формат : AVC
Формат/Информация : Advanced Video Codec
Профиль формата : High@L4.1
Параметр CABAC формата : Да
Параметр ReFrames формата : 12 кадров
Идентификатор кодека : V_MPEG4/ISO/AVC
Продолжительность : 1 ч. 46 м.
Битрейт : 9000 Кбит/сек
Ширина : 984 пикселя
Высота : 720 пикселей
Соотношение сторон : 4:3
Режим частоты кадров : Постоянный
Частота кадров : 24,000 кадра/сек
Цветовое пространство : YUV
Субдискретизация насыщенности : 4:2:0
Битовая глубина : 8 бит
Тип развёртки : Прогрессивная
Бит/(Пиксели*Кадры) : 0.529
Размер потока : 6,53 Гбайт (90%)
Заголовок : Багдадский вор / The Thief of Bagdad (1940) BDRip 720p - KORSAR
Библиотека кодирования : x264 core 158 r2984 3759fcb
Настройки программы : cabac=1 / ref=12 / deblock=1:-3:-2 / analyse=0x3:0x113 / me=umh / subme=11 / psy=1 / psy_rd=1.00:0.00 / mixed_ref=1 / me_range=48 / chroma_me=1 / trellis=2 / 8x8dct=1 / cqm=0 / deadzone=21,11 / fast_pskip=0 / chroma_qp_offset=-2 / threads=12 / lookahead_threads=2 / sliced_threads=0 / nr=0 / decimate=0 / interlaced=0 / bluray_compat=0 / constrained_intra=0 / bframes=8 / b_pyramid=2 / b_adapt=2 / b_bias=0 / direct=3 / weightb=1 / open_gop=0 / weightp=2 / keyint=240 / keyint_min=24 / scenecut=40 / intra_refresh=0 / rc_lookahead=60 / rc=2pass / mbtree=0 / bitrate=9000 / ratetol=1.0 / qcomp=0.60 / qpmin=0 / qpmax=39 / qpstep=4 / cplxblur=20.0 / qblur=0.5 / vbv_maxrate=50000 / vbv_bufsize=62500 / nal_hrd=none / filler=0 / ip_ratio=1.25 / pb_ratio=1.30 / aq=3:1.00
Язык : English
Default : Да
Forced : Нет
Основные цвета : BT.709
Характеристики трансфера : BT.709
Коэффициенты матрицы : BT.709

Аудио #1
Идентификатор : 2
Формат : AC-3
Формат/Информация : Audio Coding 3
Расширение режима : CM (complete main)
Параметр Endianness формата : Big
Идентификатор кодека : A_AC3
Продолжительность : 1 ч. 46 м.
Вид битрейта : Постоянный
Битрейт : 192 Кбит/сек
Каналы : 2 канала
Расположение каналов : Front: L R
Частота : 48,0 КГц
Битовая глубина : 16 бит
Метод сжатия : С потерями
Размер потока : 146 Мбайт (2%)
Заголовок : MVO
Язык : Russian
Default : Да
Forced : Нет

Аудио #2
Идентификатор : 3
Формат : AC-3
Формат/Информация : Audio Coding 3
Расширение режима : CM (complete main)
Параметр Endianness формата : Big
Идентификатор кодека : A_AC3
Продолжительность : 1 ч. 46 м.
Вид битрейта : Постоянный
Битрейт : 192 Кбит/сек
Каналы : 2 канала
Расположение каналов : Front: L R
Частота : 48,0 КГц
Битовая глубина : 16 бит
Метод сжатия : С потерями
Размер потока : 146 Мбайт (2%)
Заголовок : VO
Язык : Russian
Default : Нет
Forced : Нет

Аудио #3
Идентификатор : 4
Формат : AC-3
Формат/Информация : Audio Coding 3
Расширение режима : CM (complete main)
Параметр Endianness формата : Big
Идентификатор кодека : A_AC3
Продолжительность : 1 ч. 46 м.
Вид битрейта : Постоянный
Битрейт : 192 Кбит/сек
Каналы : 2 канала
Расположение каналов : Front: L R
Частота : 48,0 КГц
Битовая глубина : 16 бит
Метод сжатия : С потерями
Размер потока : 146 Мбайт (2%)
Язык : English
Default : Нет
Forced : Нет

Аудио #4
Идентификатор : 5
Формат : AC-3
Формат/Информация : Audio Coding 3
Расширение режима : CM (complete main)
Параметр Endianness формата : Big
Идентификатор кодека : A_AC3
Продолжительность : 1 ч. 46 м.
Вид битрейта : Постоянный
Битрейт : 192 Кбит/сек
Каналы : 2 канала
Расположение каналов : Front: L R
Частота : 48,0 КГц
Битовая глубина : 16 бит
Метод сжатия : С потерями
Размер потока : 146 Мбайт (2%)
Язык : German
Default : Нет
Forced : Нет

Текст #1
Идентификатор : 6
Формат : UTF-8
Идентификатор кодека : S_TEXT/UTF8
Идентификатор кодека/Информация : UTF-8 Plain Text
Default : Нет
Forced : Нет

Текст #2
Идентификатор : 7
Формат : UTF-8
Идентификатор кодека : S_TEXT/UTF8
Идентификатор кодека/Информация : UTF-8 Plain Text
Язык : German
Default : Нет
Forced : Нет

Меню
00:00:00.000 : en:00:00:00.000
00:04:16.875 : en:00:04:16.875
00:09:03.083 : en:00:09:03.083
00:12:00.792 : en:00:12:00.792
00:16:20.792 : en:00:16:20.792
00:21:17.292 : en:00:21:17.292
00:25:15.167 : en:00:25:15.167
00:29:03.667 : en:00:29:03.667
00:35:38.667 : en:00:35:38.667
00:43:19.792 : en:00:43:19.792
00:49:41.833 : en:00:49:41.833
00:54:52.708 : en:00:54:52.708
00:58:29.875 : en:00:58:29.875
01:01:37.500 : en:01:01:37.500
01:05:30.375 : en:01:05:30.375
01:11:06.417 : en:01:11:06.417
01:14:12.750 : en:01:14:12.750
01:18:27.917 : en:01:18:27.917
01:22:13.125 : en:01:22:13.125
01:27:02.667 : en:01:27:02.667
01:31:23.125 : en:01:31:23.125
01:34:57.958 : en:01:34:57.958
01:40:48.708 : en:01:40:48.708
01:44:03.000 : en:01:44:03.000

piratbit.org



Скачать Багдадский вор через торрент https://img16.lostpic.net/2020/02/06/7fbf5b2cedb8e6d546b40ab005696c21.jpg Скачать фильм Багдадский вор через торрент бесплантно в хорошем качестве Описание: В славном городе Багдаде, в великолепном дворце, в атмосфере роскоши и неги жил молодой король Ахмет, наследник великого царя ... 10 10 1
Info! Золотая раздача, скачанное не засчитывается.
Торрент: Зарегистрирован [2020-02-14 16:20] · скачан: 9 раз
Статус: √ проверено
Размер: 7.24 GB
Как cкачать? Как скачать Багдадский вор через торрент | qTorrent

28-11-2019 20:33  

Отключить всю рекламу на сайте

15-02-2020 06:05 Багдадский вор Скачать торрент  

Топик был перенесен из форума Оформление раздач (Кино, Видео и ТВ) в форум Классика зарубежного кино


Enigma2010piratbit.org



    Дорогой пользователь! Огромная просьба, поблагодарите релизера, оцените раздачу и оставьте свои комментарий, если Вы скачали Багдадский вор через торрент бесплатно! Внесите свою лепту в развитие PiratBit!
    Комментировать посты могут только пользователи прошедшие не сложную регистрацию
    Показать сообщения:    

    Багдадский вор через торрент
    Скачать бесплатно Багдадский вор
    Багдадский вор скачать торрент
    Багдадский вор смотреть онлайн
    Cкачать фильм Багдадский вор бесплатно
    Багдадский вор скачать торрент в хорошем качестве
    Багдадский вор смотреть онлайн бесплатно в хорошем качестве


    Вы не можете начинать темы
    Вы не можете отвечать на сообщения
    Вы не можете редактировать свои сообщения
    Вы не можете удалять свои сообщения
    Вы не можете голосовать в опросах
    Вы не можете прикреплять файлы к сообщениям
    Вы можете скачивать файлы