Ссылка на приватное зеркало нашего сайта всего за 1$. Внимание количество ограничено!!!

2 сезон

iTunes

1 сезон

1

iTunes

iTunes

iTunes

1 сезон

RePack

30

ИГРА 18+

pack

ВАЖНО

!!Акция!!

Alien_RageХит недели

RePack

MK11
pack

Забери бонус

RePack

jed

!!Акция!!

Alien_Rage

RePack

fifa19

RePack

Assassins Creed: Odyssey

RePack

NEED FOR SPEED™ PAYBACK

4 сезон

9 сезон

Бесстыжие 9 сезон

Все сериалы

все сериалы на PB.wtf

RePack

FAR CRY 5
  

Отстрел / Shoot Out (Генри Хэтэуэй) [1971, вестерн, BDRip-AVC by msltel] MVO, AVO piratbit.org

Отстрел через торрент piratbit.org

Размер: 2.35 GB | Добавлен: 8 мес. назад | Торрент скачан:11 раз
Скачать  

17-02-2020 08:42 Отстрел Скачать торрент  

Название: Отстрел
Оригинальное название: Shoot Out
Год выпуска: 1971
Страна: США
Жанр: вестерн
Продолжительность: 01:34:25
Перевод: профессиональный многоголосый, авторский
Режиссер: Генри Хэтэуэй
В ролях: Грегори Пек, Патриция Куинн, Роберт Ф. Лайонс, Сьюзен Тайррелл, Джефф Кори, Джеймс Грегори, Рита Гэм, Доун Лин, Пепе Серна, Джон Дэвис Чэндлер

О фильме: Клэй Ломакс только что выпущен из тюрьмы Канзас-Сити, где отбывал 7-летний срок за ограбление. Он мог бы выйти раньше, если бы сдал подельника. Но нет — Клэй не из таких. Тем более, он знает, кто выстрелил ему в спину в тот злосчастный день налёта на банк и желает решить вопрос своими методами. Ожидая вернуть от своей бывшей любовницы отданные ей на хранение деньги, получает лишь уведомление о её смерти и 6-летнюю девочку, предположительно, его дочь. Теперь девочка (вне зависимости от того, осознаёт сам Клэй этот факт или нет) как раз тот последний шанс, что может удержать его от возвращения на прежние круги разбоя и насилия...



Качество: BDRip-AVC
Формат: MKV
Видео: MPEG-4 AVC, 2979 Kбит/с, 1024x554, 23.976 Кадр/с
Аудио 1: русский, AC3, 192 kbps, 2 ch, 48 kHz [закадровый многоголосый, CTC]
Аудио 2: русский, AC3, 192 kbps, 2 ch, 48 kHz [авторский, Сергей Кузнецов]
Аудио 3: английский, AC3, 192 kbps, 2 ch, 48 kHz [оригинал]
Субтитры: английские
Главы/чаптеры
Общее
Уникальный идентификатор : 241688939957578554854938261648506390598 (0xB5D398BF4F39C16BB72D10E141708846)
Полное имя : D:\Video\Отстрел.1971.BDRip-AVC by msltel.mkv
Формат : Matroska
Версия формата : Version 4
Размер файла : 2,35 Гбайт
Продолжительность : 1 ч. 34 м.
Общий поток : 3555 Кбит/сек
Название фильма : Rip by msltel
Дата кодирования : UTC 2020-02-16 09:13:27
Программа кодирования : mkvmerge v8.2.0 ('World of Adventure') 64bit
Библиотека кодирования : libebml v1.3.1 + libmatroska v1.4.2

Видео
Идентификатор : 1
Формат : AVC
Формат/Информация : Advanced Video Codec
Профиль формата : High@L4.1
Настройки формата : CABAC / 12 Ref Frames
Параметр CABAC формата : Да
Параметр RefFrames формата : 12 кадров
Идентификатор кодека : V_MPEG4/ISO/AVC
Продолжительность : 1 ч. 34 м.
Битрейт : 2979 Кбит/сек
Ширина : 1024 пикселя
Высота : 554 пикселя
Соотношение сторон : 1,85:1
Режим частоты кадров : Постоянный
Частота кадров : 23,976 (24000/1001) кадра/сек
Цветовое пространство : YUV
Субдискретизация насыщенности : 4:2:0
Битовая глубина : 8 бит
Тип развёртки : Прогрессивная
Бит/(Пиксели*Кадры) : 0.219
Размер потока : 1,96 Гбайт (84%)
Библиотека кодирования : x264 core 157 r2969 d4099dd
Настройки программы : cabac=1 / ref=12 / deblock=1:-2:-2 / analyse=0x3:0x113 / me=umh / subme=11 / psy=1 / psy_rd=1.00:0.15 / mixed_ref=1 / me_range=32 / chroma_me=1 / trellis=2 / 8x8dct=1 / cqm=0 / deadzone=21,11 / fast_pskip=0 / chroma_qp_offset=-3 / threads=6 / lookahead_threads=1 / sliced_threads=0 / nr=0 / decimate=1 / interlaced=0 / bluray_compat=0 / constrained_intra=0 / bframes=8 / b_pyramid=2 / b_adapt=2 / b_bias=0 / direct=1 / weightb=1 / open_gop=0 / weightp=2 / keyint=230 / keyint_min=23 / scenecut=40 / intra_refresh=0 / rc_lookahead=40 / rc=crf / mbtree=1 / crf=20.0 / qcomp=0.60 / qpmin=0 / qpmax=69 / qpstep=4 / vbv_maxrate=50000 / vbv_bufsize=62500 / crf_max=0.0 / nal_hrd=none / filler=0 / ip_ratio=1.40 / aq=1:1.00
Язык : English
Default : Да
Forced : Нет

Аудио #1
Идентификатор : 2
Формат : AC-3
Формат/Информация : Audio Coding 3
Коммерческое название : Dolby Digital
Идентификатор кодека : A_AC3
Продолжительность : 1 ч. 34 м.
Вид битрейта : Постоянный
Битрейт : 192 Кбит/сек
Каналы : 2 канала
ChannelLayout : L R
Частота : 48,0 КГц
Частота кадров : 31,250 кадров/сек (1536 SPF)
Метод сжатия : С потерями
Размер потока : 130 Мбайт (5%)
Заголовок : MVO CTC
Язык : Russian
ServiceKind/String : Complete Main
Default : Да
Forced : Нет

Аудио #2
Идентификатор : 3
Формат : AC-3
Формат/Информация : Audio Coding 3
Коммерческое название : Dolby Digital
Идентификатор кодека : A_AC3
Продолжительность : 1 ч. 34 м.
Вид битрейта : Постоянный
Битрейт : 192 Кбит/сек
Каналы : 2 канала
ChannelLayout : L R
Частота : 48,0 КГц
Частота кадров : 31,250 кадров/сек (1536 SPF)
Метод сжатия : С потерями
Размер потока : 130 Мбайт (5%)
Заголовок : Сергей Кузнецов
Язык : Russian
ServiceKind/String : Complete Main
Default : Нет
Forced : Нет

Аудио #3
Идентификатор : 4
Формат : AC-3
Формат/Информация : Audio Coding 3
Коммерческое название : Dolby Digital
Идентификатор кодека : A_AC3
Продолжительность : 1 ч. 34 м.
Вид битрейта : Постоянный
Битрейт : 192 Кбит/сек
Каналы : 2 канала
ChannelLayout : L R
Частота : 48,0 КГц
Частота кадров : 31,250 кадров/сек (1536 SPF)
Метод сжатия : С потерями
Размер потока : 130 Мбайт (5%)
Заголовок : original
Язык : English
ServiceKind/String : Complete Main
Default : Нет
Forced : Нет

Текст
Идентификатор : 5
Формат : UTF-8
Идентификатор кодека : S_TEXT/UTF8
Идентификатор кодека/Информация : UTF-8 Plain Text
Продолжительность : 1 ч. 31 м.
Битрейт : 50 бит/сек
ElementCount : 1039
Размер потока : 34,2 Кбайт (0%)
Заголовок : английские
Язык : English
Default : Нет
Forced : Нет

Меню
00:00:00.000 : en:
00:01:55.865 : en:
00:07:11.639 : en:
00:15:39.980 : en:
00:22:12.664 : en:
00:30:13.478 : en:
00:35:19.575 : en:
00:38:43.529 : en:
00:49:02.981 : en:
00:58:35.720 : en:
01:04:48.718 : en:
01:10:21.425 : en:
01:16:16.154 : en:
01:21:33.054 : en:
01:24:33.777 : en:
01:33:39.947 : en:
01:34:25.034 : en:
piratbit.org



Скачать Отстрел через торрент https://d.radikal.ru/d00/2002/fa/08629755db27.jpg Скачать фильм Отстрел через торрент бесплантно в хорошем качестве О фильме: Клэй Ломакс только что выпущен из тюрьмы Канзас-Сити, где отбывал 7-летний срок за ограбление. Он мог бы выйти раньше, если бы ... 5 10 1
Торрент: Зарегистрирован [2020-02-17 08:42] · скачан: 11 раз
Статус: √ проверено
Размер: 2.35 GB
Как cкачать? Как скачать Отстрел через торрент | qTorrent

% Раздел Тема Автор DL S | L
Классика зарубежного кино [ 10.7 GB ] Отстрел / Shoot Out [1971 BDRip 1080p by msltel] MVO AVO msltel Скачать
1 | 0
Классика зарубежного кино [ 4.04 GB ] Отстрел / Shoot Out [1971 BDRip 720p by msltel] MVO AVO msltel Скачать
1 | 0

28-11-2019 20:33  

Отключить всю рекламу на сайте

    Дорогой пользователь! Огромная просьба, поблагодарите релизера, оцените раздачу и оставьте свои комментарий, если Вы скачали Отстрел через торрент бесплатно! Внесите свою лепту в развитие PiratBit!
    Комментировать посты могут только пользователи прошедшие не сложную регистрацию
    Показать сообщения:    

    Отстрел через торрент
    Скачать бесплатно Отстрел
    Отстрел скачать торрент
    Отстрел смотреть онлайн
    Cкачать фильм Отстрел бесплатно
    Отстрел скачать торрент в хорошем качестве
    Отстрел смотреть онлайн бесплатно в хорошем качестве


    Вы не можете начинать темы
    Вы не можете отвечать на сообщения
    Вы не можете редактировать свои сообщения
    Вы не можете удалять свои сообщения
    Вы не можете голосовать в опросах
    Вы не можете прикреплять файлы к сообщениям
    Вы можете скачивать файлы