Ссылка на приватное зеркало нашего сайта всего за 1$. Внимание количество ограничено!!!

2 сезон

iTunes

1 сезон

1

iTunes

iTunes

iTunes

1 сезон

RePack

30

ИГРА 18+

pack

ВАЖНО

!!Акция!!

Alien_RageХит недели

RePack

MK11
pack

Забери бонус

RePack

jed

!!Акция!!

Alien_Rage

RePack

fifa19

RePack

Assassins Creed: Odyssey

RePack

NEED FOR SPEED™ PAYBACK

4 сезон

9 сезон

Бесстыжие 9 сезон

Все сериалы

все сериалы на PB.wtf

RePack

FAR CRY 5
  

Кровь и песок / Blood and Sand (Рубен Мамулян ) [1941, драма, BDRip 720p] MVO + AVO piratbit.org

Кровь и песок через торрент piratbit.org

Размер: 6.36 GB | Добавлен: 8 мес. назад | Торрент скачан:3 раза
Скачать  

18-02-2020 15:30 Кровь и песок Скачать торрент  

Кровь и песок / Blood and Sand
Страна: США
Жанр: драма
Год выпуска: 1941
Продолжительность: 02:05:11
Перевод: Профессиональный (многоголосый, закадровый), Авторский
Субтитры: английские, немецкие.
Режиссер: Рубен Мамулян / Rouben Mamoulian
В ролях: Тайрон Пауэр (Juan Gallardo), Линда Дарнелл (Carmen Espinosa), Рита Хэйворт (Doña Sol), Алла Назимова (Señora Augustias), Энтони Куинн (Manolo de Palma), Дж. Кэролл Нейш (Garabato), Линн Бари (Encarnacion), Джон Кэрредин (El Nacional), Лэйрд Крегар (Natalio Curro), Монти Бэнкс (Antonio Lopez), Висенте Гомес (Guitarist), Джордж Ривз (Captain Pierre Lauren)
Описание: Эта мелодрама рассказывает о Хуане, бесстрашном, наивном и молодом тореадоре, променявшем подлинную любовь жены, на фальшивые объятия коварной соблазнительницы, дамы из высшего общества.


Качество: BDRip 720p
Контейнер: MKV

Видео: AVC, 988x720 (1.372), 6500 kbps, 23,976 fps, 0,381 bpp
Аудио №1: русский / AC3 / 2.0 / 48 kHz / 192 kbps / MVO ( РенТВ )
Аудио №2: русский / AC3 / 2.0 / 48 kHz / 192 kbps / AVO ( Кузнецов )
Аудио №3: английский / AC3 / 2.0 / 48 kHz / 192 kbps
Аудио №4: немецкий / AC3 / 2.0 / 48 kHz / 192 kbps
Навигация по главам: есть
Релиз от:
**********************************************************
x264 [info]: frame I:1160 Avg QP:13.71 size:146045
x264 [info]: frame P:35944 Avg QP:15.94 size: 63317
x264 [info]: frame B:142983 Avg QP:17.68 size: 25578
**********************************************************
Формат : Matroska
Версия формата : Version 2
Размер файла : 6,36 Гбайт
Продолжительность : 2 ч. 5 м.
Общий поток : 7271 Кбит/сек
Название фильма : = Кровь и песок / Blood and Sand (1941) BDRip 720p - KORSAR =
Дата кодирования : UTC 2019-10-25 15:52:12
Программа кодирования : mkvmerge v5.8.0 ('No Sleep / Pillow') built on Sep 2 2012 15:37:04
Библиотека кодирования : libebml v1.2.3 + libmatroska v1.3.0
Attachment : Yes

Видео
Идентификатор : 1
Формат : AVC
Формат/Информация : Advanced Video Codec
Профиль формата : High@L4.1
Параметр CABAC формата : Да
Параметр ReFrames формата : 12 кадров
Идентификатор кодека : V_MPEG4/ISO/AVC
Продолжительность : 2 ч. 5 м.
Битрейт : 6500 Кбит/сек
Ширина : 988 пикселей
Высота : 720 пикселей
Соотношение сторон : 1,372
Режим частоты кадров : Постоянный
Частота кадров : 23,976 кадра/сек
Цветовое пространство : YUV
Субдискретизация насыщенности : 4:2:0
Битовая глубина : 8 бит
Тип развёртки : Прогрессивная
Бит/(Пиксели*Кадры) : 0.381
Размер потока : 5,56 Гбайт (87%)
Заголовок : Кровь и песок / Blood and Sand (1941) BDRip 720p - KORSAR
Библиотека кодирования : x264 core 152 r2851kMod ba24899
Настройки программы : cabac=1 / ref=12 / deblock=1:-3:-3 / analyse=0x3:0x113 / me=umh / subme=11 / psy=1 / fade_compensate=0.00 / psy_rd=1.02:0.02 / mixed_ref=1 / me_range=48 / chroma_me=1 / trellis=2 / 8x8dct=1 / cqm=0 / deadzone=21,11 / fast_pskip=0 / chroma_qp_offset=-3 / threads=12 / lookahead_threads=3 / sliced_threads=0 / nr=0 / decimate=0 / interlaced=0 / bluray_compat=0 / constrained_intra=0 / bframes=10 / b_pyramid=2 / b_adapt=2 / b_bias=0 / direct=3 / weightb=1 / open_gop=0 / weightp=2 / keyint=240 / keyint_min=23 / scenecut=40 / intra_refresh=0 / rc_lookahead=60 / rc=2pass / mbtree=0 / bitrate=6500 / ratetol=1.0 / qcomp=0.62 / qpmin=0 / qpmax=39 / qpstep=4 / cplxblur=20.0 / qblur=0.5 / vbv_maxrate=50000 / vbv_bufsize=62500 / nal_hrd=none / filler=0 / ip_ratio=1.25 / pb_ratio=1.30 / aq=3:0.80
Язык : English
Default : Да
Forced : Нет
Основные цвета : BT.709
Характеристики трансфера : BT.709
Коэффициенты матрицы : BT.709

Аудио #1
Идентификатор : 2
Формат : AC-3
Формат/Информация : Audio Coding 3
Расширение режима : CM (complete main)
Параметр Endianness формата : Big
Идентификатор кодека : A_AC3
Продолжительность : 2 ч. 5 м.
Вид битрейта : Постоянный
Битрейт : 192 Кбит/сек
Каналы : 2 канала
Расположение каналов : Front: L R
Частота : 48,0 КГц
Битовая глубина : 16 бит
Метод сжатия : С потерями
Размер потока : 172 Мбайт (3%)
Заголовок : MVO ( РенТВ )
Язык : Russian
Default : Да
Forced : Нет

Аудио #2
Идентификатор : 3
Формат : AC-3
Формат/Информация : Audio Coding 3
Расширение режима : CM (complete main)
Параметр Endianness формата : Big
Идентификатор кодека : A_AC3
Продолжительность : 2 ч. 5 м.
Вид битрейта : Постоянный
Битрейт : 192 Кбит/сек
Каналы : 2 канала
Расположение каналов : Front: L R
Частота : 48,0 КГц
Битовая глубина : 16 бит
Метод сжатия : С потерями
Размер потока : 172 Мбайт (3%)
Заголовок : AVO ( Кузнецов )
Язык : Russian
Default : Нет
Forced : Нет

Аудио #3
Идентификатор : 4
Формат : AC-3
Формат/Информация : Audio Coding 3
Расширение режима : CM (complete main)
Параметр Endianness формата : Big
Идентификатор кодека : A_AC3
Продолжительность : 2 ч. 5 м.
Вид битрейта : Постоянный
Битрейт : 192 Кбит/сек
Каналы : 2 канала
Расположение каналов : Front: L R
Частота : 48,0 КГц
Битовая глубина : 16 бит
Метод сжатия : С потерями
Размер потока : 172 Мбайт (3%)
Язык : English
Default : Нет
Forced : Нет

Аудио #4
Идентификатор : 5
Формат : AC-3
Формат/Информация : Audio Coding 3
Расширение режима : CM (complete main)
Параметр Endianness формата : Big
Идентификатор кодека : A_AC3
Продолжительность : 2 ч. 5 м.
Вид битрейта : Постоянный
Битрейт : 192 Кбит/сек
Каналы : 2 канала
Расположение каналов : Front: L R
Частота : 48,0 КГц
Битовая глубина : 16 бит
Метод сжатия : С потерями
Размер потока : 172 Мбайт (3%)
Язык : German
Default : Нет
Forced : Нет

Текст #1
Идентификатор : 6
Формат : UTF-8
Идентификатор кодека : S_TEXT/UTF8
Идентификатор кодека/Информация : UTF-8 Plain Text
Язык : English
Default : Нет
Forced : Нет

Текст #2
Идентификатор : 7
Формат : UTF-8
Идентификатор кодека : S_TEXT/UTF8
Идентификатор кодека/Информация : UTF-8 Plain Text
Язык : German
Default : Нет
Forced : Нет

Меню
00:00:00.000 : en:00:00:00.000
00:01:24.793 : en:00:01:24.793
00:12:39.759 : en:00:12:39.759
00:22:05.366 : en:00:22:05.366
00:31:47.239 : en:00:31:47.239
00:41:52.593 : en:00:41:52.593
00:52:15.716 : en:00:52:15.716
01:08:15.800 : en:01:08:15.800
01:22:58.682 : en:01:22:58.682
01:35:56.584 : en:01:35:56.584
01:51:16.253 : en:01:51:16.253

скриншот  скриншот  скриншот  скриншот  

скриншот  скриншот  скриншот  скриншот  
piratbit.org



Скачать Кровь и песок через торрент https://img16.lostpic.net/2020/02/06/2ee65f44a43dc43140a2a19fccd188b1.jpg Скачать фильм Кровь и песок через торрент бесплантно в хорошем качестве Описание: Эта мелодрама рассказывает о Хуане, бесстрашном, наивном и молодом тореадоре, променявшем подлинную любовь жены, на фальшивые ... 10 10 1
Info! Золотая раздача, скачанное не засчитывается.
Торрент: Зарегистрирован [2020-02-18 15:32] · скачан: 3 раз
Статус: √ проверено
Размер: 6.36 GB
Как cкачать? Как скачать Кровь и песок через торрент | qTorrent

28-11-2019 20:33  

Отключить всю рекламу на сайте

    Дорогой пользователь! Огромная просьба, поблагодарите релизера, оцените раздачу и оставьте свои комментарий, если Вы скачали Кровь и песок через торрент бесплатно! Внесите свою лепту в развитие PiratBit!
    Комментировать посты могут только пользователи прошедшие не сложную регистрацию
    Показать сообщения:    

    Кровь и песок через торрент
    Скачать бесплатно Кровь и песок
    Кровь и песок скачать торрент
    Кровь и песок смотреть онлайн
    Cкачать фильм Кровь и песок бесплатно
    Кровь и песок скачать торрент в хорошем качестве
    Кровь и песок смотреть онлайн бесплатно в хорошем качестве


    Вы не можете начинать темы
    Вы не можете отвечать на сообщения
    Вы не можете редактировать свои сообщения
    Вы не можете удалять свои сообщения
    Вы не можете голосовать в опросах
    Вы не можете прикреплять файлы к сообщениям
    Вы можете скачивать файлы