1 сезон

1 сезон

iTunes

1

КиноПоиск HD

Кинопоиск HD

iTunes

13

1 сезон

RePack

30

Новинка

ВАЖНО

ИГРА 18+

pack

RePack

MK11
pack

Легкие деньги

RePack

jed

RePack

fifa19

RePack

RDR2

RePack

NEED FOR SPEED™ PAYBACK

4 сезон

9 сезон

Бесстыжие 9 сезон

Все сериалы

все сериалы на PB.wtf

RePack

FAR CRY 5
  
Magnet ссылка

Сквозь тёмное стекло / Såsom i en spegel (Ингмар Бергман) [1961, драма, BDRip 1080p by msltel] MVO, AVO piratbit.org

Сквозь тёмное стекло через торрент piratbit.org

Размер: 8.5 GB | Добавлен: 1 год 2 мес. назад | Торрент скачан:3 раза
Скачать  

19-02-2020 09:50 Сквозь тёмное стекло Скачать торрент  

Название: Сквозь тёмное стекло
Оригинальное название: Såsom i en spegel
Год выпуска: 1961
Страна: Швеция
Жанр: драма
Продолжительность: 01:30:15
Перевод: профессиональный многоголосый, авторский
Режиссер: Ингмар Бергман
В ролях: Харриет Андерссон, Гуннар Бьёрнстранд, Макс фон Сюдов, Ларс Пассгорд

О фильме: Только что вышедшая из психиатрической лечебницы девушка Карин отдыхает вместе со своим мужем Мартином, отцом Дэвидом и младшим братом Фредериком на небольшом островке. Карин страдает галлюцинациями и истерическими припадками — ей кажется, что её посещает Господь Бог...



Качество: BDRip 1080p
Формат: MKV
Видео: MPEG-4 AVC, 12.9 Mбит/с, 1484x1080
Аудио 1: русский, AC3, 192 kbps, 2 ch, 48 kHz [закадровый многоголосый]
Аудио 2: русский, AC3, 192 kbps, 1 ch, 48 kHz [авторский, Валерий Казаков]
Аудио 3: английский, AC3, 192 kbps, 1 ch, 48 kHz [оригинал]
Субтитры 1: русские (В. Казаков)
Субтитры 2: русские (Л. Мерзон)
Субтитры 3: английские
Главы/чаптеры
Общее
Уникальный идентификатор : 172461975163495727872726086792821380622 (0x81BEF7DD7FB570FD98343A227E38960E)
Полное имя : D:\Video\Сквозь тёмное стекло.1961.BDRip 1080p by msltel.mkv
Формат : Matroska
Версия формата : Version 4
Размер файла : 8,50 Гбайт
Продолжительность : 1 ч. 30 м.
Общий поток : 13,5 Мбит/сек
Название фильма : Rip by msltel
Дата кодирования : UTC 2020-02-19 08:17:36
Программа кодирования : mkvmerge v8.2.0 ('World of Adventure') 64bit
Библиотека кодирования : libebml v1.3.1 + libmatroska v1.4.2

Видео
Идентификатор : 1
Формат : AVC
Формат/Информация : Advanced Video Codec
Профиль формата : High@L4.1
Настройки формата : CABAC / 5 Ref Frames
Параметр CABAC формата : Да
Параметр RefFrames формата : 5 кадров
Идентификатор кодека : V_MPEG4/ISO/AVC
Продолжительность : 1 ч. 30 м.
Битрейт : 12,9 Мбит/сек
Ширина : 1484 пикселя
Высота : 1080 пикселей
Соотношение сторон : 1,374
Режим частоты кадров : Постоянный
Частота кадров : 23,976 (24000/1001) кадра/сек
Цветовое пространство : YUV
Субдискретизация насыщенности : 4:2:0
Битовая глубина : 8 бит
Тип развёртки : Прогрессивная
Бит/(Пиксели*Кадры) : 0.336
Размер потока : 8,14 Гбайт (96%)
Библиотека кодирования : x264 core 157 r2969 d4099dd
Настройки программы : cabac=1 / ref=5 / deblock=1:-2:-2 / analyse=0x3:0x113 / me=umh / subme=11 / psy=1 / psy_rd=1.00:0.15 / mixed_ref=1 / me_range=32 / chroma_me=1 / trellis=2 / 8x8dct=1 / cqm=0 / deadzone=21,11 / fast_pskip=0 / chroma_qp_offset=-3 / threads=6 / lookahead_threads=1 / sliced_threads=0 / nr=0 / decimate=1 / interlaced=0 / bluray_compat=0 / constrained_intra=0 / bframes=7 / b_pyramid=2 / b_adapt=2 / b_bias=0 / direct=1 / weightb=1 / open_gop=0 / weightp=2 / keyint=230 / keyint_min=23 / scenecut=40 / intra_refresh=0 / rc_lookahead=40 / rc=crf / mbtree=1 / crf=18.5 / qcomp=0.60 / qpmin=0 / qpmax=69 / qpstep=4 / vbv_maxrate=50000 / vbv_bufsize=62500 / crf_max=0.0 / nal_hrd=none / filler=0 / ip_ratio=1.40 / aq=1:1.00
Язык : Swedish
Default : Да
Forced : Нет

Аудио #1
Идентификатор : 2
Формат : AC-3
Формат/Информация : Audio Coding 3
Коммерческое название : Dolby Digital
Идентификатор кодека : A_AC3
Продолжительность : 1 ч. 30 м.
Вид битрейта : Постоянный
Битрейт : 192 Кбит/сек
Каналы : 2 канала
ChannelLayout : L R
Частота : 48,0 КГц
Частота кадров : 31,250 кадров/сек (1536 SPF)
Метод сжатия : С потерями
Размер потока : 124 Мбайт (1%)
Заголовок : MVO
Язык : Russian
ServiceKind/String : Complete Main
Default : Да
Forced : Нет

Аудио #2
Идентификатор : 3
Формат : AC-3
Формат/Информация : Audio Coding 3
Коммерческое название : Dolby Digital
Идентификатор кодека : A_AC3
Продолжительность : 1 ч. 30 м.
Вид битрейта : Постоянный
Битрейт : 192 Кбит/сек
Каналы : 1 канал
ChannelLayout : C
Частота : 48,0 КГц
Частота кадров : 31,250 кадров/сек (1536 SPF)
Метод сжатия : С потерями
Размер потока : 124 Мбайт (1%)
Заголовок : Валерий Казаков
Язык : Russian
ServiceKind/String : Complete Main
Default : Нет
Forced : Нет

Аудио #3
Идентификатор : 4
Формат : AC-3
Формат/Информация : Audio Coding 3
Коммерческое название : Dolby Digital
Идентификатор кодека : A_AC3
Продолжительность : 1 ч. 30 м.
Вид битрейта : Постоянный
Битрейт : 192 Кбит/сек
Каналы : 1 канал
ChannelLayout : C
Частота : 48,0 КГц
Частота кадров : 31,250 кадров/сек (1536 SPF)
Метод сжатия : С потерями
Размер потока : 124 Мбайт (1%)
Заголовок : original
Язык : Swedish
ServiceKind/String : Complete Main
Default : Нет
Forced : Нет

Текст #1
Идентификатор : 5
Формат : UTF-8
Идентификатор кодека : S_TEXT/UTF8
Идентификатор кодека/Информация : UTF-8 Plain Text
Продолжительность : 1 ч. 29 м.
Битрейт : 74 бит/сек
ElementCount : 830
Размер потока : 49,0 Кбайт (0%)
Заголовок : русские В. Казаков
Язык : Russian
Default : Нет
Forced : Нет

Текст #2
Идентификатор : 6
Формат : UTF-8
Идентификатор кодека : S_TEXT/UTF8
Идентификатор кодека/Информация : UTF-8 Plain Text
Продолжительность : 1 ч. 29 м.
Битрейт : 67 бит/сек
ElementCount : 741
Размер потока : 44,3 Кбайт (0%)
Заголовок : русские Л. Мерзон
Язык : Russian
Default : Нет
Forced : Нет

Текст #3
Идентификатор : 7
Формат : UTF-8
Идентификатор кодека : S_TEXT/UTF8
Идентификатор кодека/Информация : UTF-8 Plain Text
Продолжительность : 1 ч. 29 м.
Битрейт : 41 бит/сек
ElementCount : 857
Размер потока : 27,0 Кбайт (0%)
Заголовок : английские
Язык : English
Default : Нет
Forced : Нет

Меню
00:00:00.000 : en:Opening credits
00:02:16.219 : en:By the sea
00:06:48.699 : en:Truth about Karin
00:10:10.776 : en:Supper under the moon
00:14:34.164 : en:Surprise for Papa
00:21:25.534 : en:Little Kajsa
00:24:58.079 : en:Artistic haunting
00:31:52.035 : en:In Papa's room
00:38:02.405 : en:"Be patient with me"
00:43:07.126 : en:"Easy now, Minus"
00:47:16.458 : en:Secrets between siblings
00:53:57.442 : en:Out in the open
01:00:14.152 : en:Storm sets in
01:07:11.736 : en:"Before it starts again"
01:13:40.165 : en:Tomb of illusion
01:19:01.445 : en:Face of God
01:26:59.130 : en:Certainty achieved
piratbit.org



Скачать Сквозь тёмное стекло через торрент https://d.radikal.ru/d39/2002/ac/79ce80ac7fc8.jpg Скачать фильм Сквозь тёмное стекло через торрент бесплантно в хорошем качестве О фильме: Только что вышедшая из психиатрической лечебницы девушка Карин отдыхает вместе со своим мужем Мартином, отцом Дэвидом и младшим ... 5 10 1
Info! Золотая раздача, скачанное не засчитывается.
Торрент: Зарегистрирован [2020-02-19 09:50] · скачан: 3 раз
Статус: √ проверено
Размер: 8.5 GB
Как cкачать? Как скачать Сквозь тёмное стекло через торрент | UTorrent

% Раздел Тема Автор DL S | L
Арт-хаус и авторское кино [ 3.45 GB ] Сквозь тёмное стекло / Såsom i en spegel [1961 BDRip 720p by msltel] MVO AVO msltel Скачать
1 | 0
Арт-хаус и авторское кино [ 1.91 GB ] Сквозь тёмное стекло / Såsom i en spegel [1961 BDRip-AVC by msltel] MVO AVO msltel Скачать
1 | 0

28-11-2019 20:33  

Отключить всю рекламу на сайте

    Дорогой пользователь! Огромная просьба, поблагодарите релизера, оцените раздачу и оставьте свои комментарий, если Вы скачали Сквозь тёмное стекло через торрент бесплатно! Внесите свою лепту в развитие PiratBit!
    Комментировать посты могут только пользователи прошедшие не сложную регистрацию
    Показать сообщения:    

    Сквозь тёмное стекло через торрент
    Скачать бесплатно Сквозь тёмное стекло
    Сквозь тёмное стекло скачать торрент
    Сквозь тёмное стекло смотреть онлайн
    Cкачать фильм Сквозь тёмное стекло бесплатно
    Сквозь тёмное стекло скачать торрент в хорошем качестве
    Сквозь тёмное стекло смотреть онлайн бесплатно в хорошем качестве


    Вы не можете начинать темы
    Вы не можете отвечать на сообщения
    Вы не можете редактировать свои сообщения
    Вы не можете удалять свои сообщения
    Вы не можете голосовать в опросах
    Вы не можете прикреплять файлы к сообщениям
    Вы можете скачивать файлы