Ссылка на приватное зеркало нашего сайта всего за 1$. Внимание количество ограничено!!!

2 сезон

iTunes

1 сезон

1

iTunes

iTunes

iTunes

1 сезон

RePack

30

ИГРА 18+

pack

ВАЖНО

!!Акция!!

Alien_RageХит недели

RePack

MK11
pack

Забери бонус

RePack

jed

!!Акция!!

Alien_Rage

RePack

fifa19

RePack

Assassins Creed: Odyssey

RePack

NEED FOR SPEED™ PAYBACK

4 сезон

9 сезон

Бесстыжие 9 сезон

Все сериалы

все сериалы на PB.wtf

RePack

FAR CRY 5
  

Недостойное поведение / Conduct Unbecoming (Майкл Андерсон) [1975, драма, криминал, детектив, BDRip-AVC by msltel] MVO piratbit.org

Недостойное поведение через торрент piratbit.org

Размер: 2.67 GB | Добавлен: 8 мес. назад | Торрент скачан:9 раз
Скачать  

21-02-2020 07:07 Недостойное поведение Скачать торрент  

Название: Недостойное поведение
Оригинальное название: Conduct Unbecoming
Год выпуска: 1975
Страна: Великобритания
Жанр: драма, криминал, детектив
Продолжительность: 01:47:01
Перевод: профессиональный многоголосый
Режиссер: Майкл Андерсон
В ролях: Майкл Йорк, Ричард Эттенборо, Тревор Хауард, Стэйси Кич, Кристофер Пламмер, Сюзанна Йорк, Джеймс Фолкнер, Майкл Калвер, Джеймс Дональд, Рафик Анвар

О фильме: Действие происходит на севере Индии в 1880 году, во времена викторианского колониального владычества. Скандал в среде британских офицеров из колониальной армии был вызван абсолютно недостойным, порочащим звание и честь улана, грязным поступком по отношению к офицерской вдове. Последующее расследование трибунала приводит к оправданию изначально обвинённого в преступлении офицера и к самоубийству виновника.



Качество: BDRip-AVC
Формат: MKV
Видео: MPEG-4 AVC, 2929 Kбит/с, 1024x576, 23.976 Кадр/с
Аудио 1: русский, AC3, 192 kbps, 2 ch, 48 kHz [закадровый многоголосый, Русский репортаж]
Аудио 2: английский, AC3, 448 kbps, 2 ch, 48 kHz [оригинал]
Субтитры: английские
Главы/чаптеры
Общее
Уникальный идентификатор : 240079754731667010233184641273723821274 (0xB49DADCA4928F63BA91A1D941A731CDA)
Полное имя : D:\Video\Недостойное поведение.1975.BDRip-AVC by msltel.mkv
Формат : Matroska
Версия формата : Version 4
Размер файла : 2,67 Гбайт
Продолжительность : 1 ч. 47 м.
Общий поток : 3571 Кбит/сек
Название фильма : Rip by msltel
Дата кодирования : UTC 2020-02-21 01:54:34
Программа кодирования : mkvmerge v8.2.0 ('World of Adventure') 64bit
Библиотека кодирования : libebml v1.3.1 + libmatroska v1.4.2

Видео
Идентификатор : 1
Формат : AVC
Формат/Информация : Advanced Video Codec
Профиль формата : High@L4.1
Настройки формата : CABAC / 12 Ref Frames
Параметр CABAC формата : Да
Параметр RefFrames формата : 12 кадров
Идентификатор кодека : V_MPEG4/ISO/AVC
Продолжительность : 1 ч. 47 м.
Битрейт : 2929 Кбит/сек
Ширина : 1024 пикселя
Высота : 576 пикселей
Соотношение сторон : 16:9
Режим частоты кадров : Постоянный
Частота кадров : 23,976 (24000/1001) кадра/сек
Цветовое пространство : YUV
Субдискретизация насыщенности : 4:2:0
Битовая глубина : 8 бит
Тип развёртки : Прогрессивная
Бит/(Пиксели*Кадры) : 0.207
Размер потока : 2,19 Гбайт (82%)
Библиотека кодирования : x264 core 157 r2969 d4099dd
Настройки программы : cabac=1 / ref=12 / deblock=1:-2:-2 / analyse=0x3:0x113 / me=umh / subme=11 / psy=1 / psy_rd=1.00:0.15 / mixed_ref=1 / me_range=32 / chroma_me=1 / trellis=2 / 8x8dct=1 / cqm=0 / deadzone=21,11 / fast_pskip=0 / chroma_qp_offset=-3 / threads=6 / lookahead_threads=1 / sliced_threads=0 / nr=0 / decimate=1 / interlaced=0 / bluray_compat=0 / constrained_intra=0 / bframes=9 / b_pyramid=2 / b_adapt=2 / b_bias=0 / direct=1 / weightb=1 / open_gop=0 / weightp=2 / keyint=230 / keyint_min=23 / scenecut=40 / intra_refresh=0 / rc_lookahead=40 / rc=crf / mbtree=1 / crf=18.6 / qcomp=0.60 / qpmin=0 / qpmax=69 / qpstep=4 / vbv_maxrate=50000 / vbv_bufsize=62500 / crf_max=0.0 / nal_hrd=none / filler=0 / ip_ratio=1.40 / aq=1:1.00
Язык : English
Default : Да
Forced : Нет

Аудио #1
Идентификатор : 2
Формат : AC-3
Формат/Информация : Audio Coding 3
Коммерческое название : Dolby Digital
Идентификатор кодека : A_AC3
Продолжительность : 1 ч. 46 м.
Вид битрейта : Постоянный
Битрейт : 192 Кбит/сек
Каналы : 2 канала
ChannelLayout : L R
Частота : 48,0 КГц
Частота кадров : 31,250 кадров/сек (1536 SPF)
Метод сжатия : С потерями
Размер потока : 147 Мбайт (5%)
Заголовок : MVO Русский репортаж
Язык : Russian
ServiceKind/String : Complete Main
Default : Да
Forced : Нет

Аудио #2
Идентификатор : 3
Формат : AC-3
Формат/Информация : Audio Coding 3
Коммерческое название : Dolby Digital
Идентификатор кодека : A_AC3
Продолжительность : 1 ч. 47 м.
Вид битрейта : Постоянный
Битрейт : 448 Кбит/сек
Каналы : 2 канала
ChannelLayout : L R
Частота : 48,0 КГц
Частота кадров : 31,250 кадров/сек (1536 SPF)
Метод сжатия : С потерями
Размер потока : 343 Мбайт (13%)
Заголовок : original
Язык : English
ServiceKind/String : Complete Main
Default : Нет
Forced : Нет

Текст
Идентификатор : 4
Формат : UTF-8
Идентификатор кодека : S_TEXT/UTF8
Идентификатор кодека/Информация : UTF-8 Plain Text
Продолжительность : 1 ч. 46 м.
Битрейт : 68 бит/сек
ElementCount : 1648
Размер потока : 53,1 Кбайт (0%)
Заголовок : английские
Язык : English
Default : Нет
Forced : Нет

Меню
00:00:00.000 : en:Chapter 1
00:03:11.358 : en:Chapter 2
00:08:21.751 : en:Chapter 3
00:13:40.695 : en:Chapter 4
00:18:36.032 : en:Chapter 5
00:26:39.014 : en:Chapter 6
00:32:02.504 : en:Chapter 7
00:40:00.315 : en:Chapter 8
00:45:47.495 : en:Chapter 9
00:51:46.854 : en:Chapter 10
00:59:51.088 : en:Chapter 11
01:06:58.890 : en:Chapter 12
01:18:59.985 : en:Chapter 13
01:25:11.356 : en:Chapter 14
01:33:49.374 : en:Chapter 15
piratbit.org



Скачать Недостойное поведение через торрент https://a.radikal.ru/a31/2002/e7/86a7619b9ba3.png Скачать фильм Недостойное поведение через торрент бесплантно в хорошем качестве О фильме: Действие происходит на севере Индии в 1880 году, во времена викторианского колониального владычества. Скандал в среде британских ... 10 10 1
Торрент: Зарегистрирован [2020-02-21 07:07] · скачан: 9 раз
Статус: √ проверено
Размер: 2.67 GB
Как cкачать? Как скачать Недостойное поведение через торрент | qTorrent

% Раздел Тема Автор DL S | L
Классика зарубежного кино [ 13.49 GB ] Недостойное поведение / Conduct Unbecoming [1975 BDRip 1080p by msltel] MVO msltel Скачать
1 | 0
Классика зарубежного кино [ 5.18 GB ] Недостойное поведение / Conduct Unbecoming [1975 BDRip 720p by msltel] MVO msltel Скачать
1 | 0

28-11-2019 20:33  

Отключить всю рекламу на сайте

    Дорогой пользователь! Огромная просьба, поблагодарите релизера, оцените раздачу и оставьте свои комментарий, если Вы скачали Недостойное поведение через торрент бесплатно! Внесите свою лепту в развитие PiratBit!
    Комментировать посты могут только пользователи прошедшие не сложную регистрацию
    Показать сообщения:    

    Недостойное поведение через торрент
    Скачать бесплатно Недостойное поведение
    Недостойное поведение скачать торрент
    Недостойное поведение смотреть онлайн
    Cкачать фильм Недостойное поведение бесплатно
    Недостойное поведение скачать торрент в хорошем качестве
    Недостойное поведение смотреть онлайн бесплатно в хорошем качестве


    Вы не можете начинать темы
    Вы не можете отвечать на сообщения
    Вы не можете редактировать свои сообщения
    Вы не можете удалять свои сообщения
    Вы не можете голосовать в опросах
    Вы не можете прикреплять файлы к сообщениям
    Вы можете скачивать файлы