Лицензия

MVO

1

1 сезон

Лицензия

Лицензия

13

MVO

1 сезон

Deluxe Edition

pack

Рекомендуем

30

Repack

ВАЖНО

ВАЖНО

Ghostwire

RePack

jed

RePack

fifa19

RePack

RDR2

RePack

NEED FOR SPEED™ PAYBACK

RePack

Кинопоиск HD

 Острые козырьки 6 сезон

6 сезон

FAR CRY 6

RePack

Лицензия

MVO

1

1 сезон

1 сезон

Лицензия

  

Пассажир (Вадим Гнедков) [1975 г., киноповесть, экранизация, короткометражный, SATRip-AVC]

Пассажир через торрент piratbit.org

Раздают: 1 [ 0 KB/s ]
Размер: 428 MB | Добавлен: 2 года 7 мес. назад | Торрент скачан:5 раз
Смотреть онлайн Пассажир | Скачать   

23-02-2020 14:01 Пассажир Скачать торрент  

Пассажир

Год выпуска: 1975
Страна: СССР | Новосибирсктелефильм
Жанр: короткометражный
Продолжительность: 00:38:29
Перевод: не требуется (оригинал)

Режиссер: Вадим Гнедков

В ролях: Светлана Полуэктова, Игорь Корсаков, Сергей Авдеев, Евгений Лемешонок, Михаил Стрелков, Анастасия Гаршина, Альберт Дорожко, Вадим Наймушин, Валерий Чумичев, Михаил Манюнин, Дмитрий Бутенко, Станислав Байков, Игорь Баранов, Евгений Стригун

Описание: По мотивам рассказа И.Назарова "Быль великой реки".
Юноша Игорь во время аварии на барже не растерялся и проявил мужество.

«Рекламы нет»

Файл
Формат: MKV
Кодек: x264
Качество: SATRip-AVC (DVB)
Видео: 544->768x572 (4:3), 25.000 fps, 1332 kbps, 0.171 bit/pixel
Аудио: Русский, AC3, 2 chnls, 192 kbps | Оригинал
Скачать: Семпл
x264 [info]: frame I:340 Avg QP:17.04 size: 37207
x264 [info]: frame P:14154 Avg QP:18.52 size: 16040
x264 [info]: frame B:43252 Avg QP:19.90 size: 3545
x264 [info]: consecutive B-frames: 2.7% 4.0% 13.0% 24.6% 22.8% 27.8% 3.3% 1.0% 0.4% 0.2% 0.0% 0.1% 0.0%
Format : Matroska
Format version : Version 2
File size : 428 MiB
Duration : 38 min 29 s
Overall bit rate : 1 555 kb/s
Movie name : Пассажир (1975) - Rip by -{am}-
Encoded date : UTC 2020-02-22 02:52:10
Writing application : mkvmerge v6.9.1 ('Blue Panther') 32bit built on Apr 18 2014 18:15:44
Writing library : libebml v1.3.0 + libmatroska v1.4.1
Attachments : poster.jpg

Video
ID : 1
Format : AVC
Format/Info : Advanced Video Codec
Format profile : High@L4.1
Format settings : CABAC / 16 Ref Frames
Format settings, CABAC : Yes
Format settings, Reference : 16 frames
Codec ID : V_MPEG4/ISO/AVC
Duration : 38 min 29 s
Bit rate : 1 332 kb/s
Width : 544 pixels
Height : 572 pixels
Display aspect ratio : 4:3
Frame rate mode : Constant
Frame rate : 25.000 FPS
Color space : YUV
Chroma subsampling : 4:2:0
Bit depth : 8 bits
Scan type : Progressive
Bits/(Pixel*Frame) : 0.171
Stream size : 367 MiB (86%)
Title : Passajir.1975.{am}.768.Rus
Writing library : x264 core 159 r2991+49 524a90c t_mod_New [0-bit@all X86_64]
Encoding settings : cabac=1 / ref=16 / deblock=1:-2:-1 / analyse=0x3:0x113 / me=tesa / subme=10 / psy=1 / fade_compensate=0.00 / psy_rd=1.00:0.20 / mixed_ref=1 / me_range=32 / chroma_me=1 / trellis=2 / 8x8dct=1 / cqm=0 / deadzone=21,11 / fast_pskip=0 / chroma_qp_offset=-5 / threads=18 / lookahead_threads=4 / sliced_threads=0 / nr=0 / decimate=0 / interlaced=0 / bluray_compat=0 / constrained_intra=0 / fgo=0 / bframes=12 / b_pyramid=2 / b_adapt=2 / b_bias=0 / direct=3 / weightb=1 / open_gop=0 / weightp=2 / keyint=250 / keyint_min=25 / scenecut=40 / intra_refresh=0 / rc_lookahead=40 / rc=crf / mbtree=0 / crf=18.0000 / qcomp=0.60 / qpmin=0:0:0 / qpmax=69:69:69 / qpstep=4 / vbv_maxrate=50000 / vbv_bufsize=62500 / crf_max=0.0 / nal_hrd=none / filler=0 / ip_ratio=1.40 / pb_ratio=1.30 / aq=3:1.00 / aq-sensitivity=10.00 / aq-factor=1.00:1.00:1.00 / aq2=0 / aq3=0
Language : Russian
Default : Yes
Forced : No

Audio
ID : 2
Format : AC-3
Format/Info : Audio Coding 3
Commercial name : Dolby Digital
Codec ID : A_AC3
Duration : 38 min 29 s
Bit rate mode : Constant
Bit rate : 192 kb/s
Channel(s) : 2 channels
Channel layout : L R
Sampling rate : 48.0 kHz
Frame rate : 31.250 FPS (1536 SPF)
Compression mode : Lossy
Stream size : 52.9 MiB (12%)
Title : Original
Language : Russian
Service kind : Complete Main
Default : Yes
Forced : No



Скачать Пассажир через торрент https://img10.lostpic.net/2020/02/23/bc9c8168aa041da719e3118fa43b7c83.th.png Скачать, смотреть онлайн Пассажир бесплантно в хорошем качестве Описание: По мотивам рассказа И.Назарова "Быль великой реки".Юноша Игорь во время аварии на барже не растерялся и проявил мужество. ... 10 10 1
Торрент: Зарегистрирован [2020-02-23 14:01] · скачан: 5 раз
Статус: √ проверено
Размер: 428 MB
Как cкачать? Как скачать Пассажир через торрент | UTorrent

28-11-2019 20:33  

Отключить вcю реклaмy на сайте

    Дорогой пользователь! Огромная просьба, поблагодарите релизера, оцените раздачу и оставьте свои комментарий, если Вы скачали Пассажир через торрент бесплатно!!
    Комментировать посты могут только пользователи прошедшие не сложную регистрацию
    Показать сообщения:    


    Пассажир через торрент
    Скачать бесплатно Пассажир
    Пассажир скачать торрент
    Пассажир смотреть онлайн
    Cкачать фильм Пассажир бесплатно
    Пассажир скачать торрент в хорошем качестве
    Пассажир смотреть онлайн бесплатно в хорошем качестве
    Вы не можете начинать темы
    Вы не можете отвечать на сообщения
    Вы не можете редактировать свои сообщения
    Вы не можете удалять свои сообщения
    Вы не можете голосовать в опросах
    Вы не можете прикреплять файлы к сообщениям
    Вы можете скачивать файлы