1 сезон

1 сезон

iTunes

1

iTunes

Кинопоиск HD

iTunes

13

1 сезон

RePack

30

Deluxe

ВАЖНО

ИГРА 18+

pack

RePack

MK11
pack

Легкие деньги

RePack

jed

RePack

fifa19

RePack

RDR2

RePack

NEED FOR SPEED™ PAYBACK

4 сезон

9 сезон

Бесстыжие 9 сезон

Все сериалы

все сериалы на PB.wtf

RePack

FAR CRY 5
  
Magnet ссылка

Ярмарка тщеславия / Vanity Fair (Мира Наир) [2004, драма, BDRip-AVC by msltel] 2 x MVO, AVO piratbit.org

Ярмарка тщеславия через торрент piratbit.org

Размер: 3.58 GB | Добавлен: 1 год 2 мес. назад | Торрент скачан:7 раз
Скачать  

25-02-2020 06:21 Ярмарка тщеславия Скачать торрент  

Название: Ярмарка тщеславия
Оригинальное название: Vanity Fair
Год выпуска: 2004
Страна: США, Индия, Великобритания
Жанр: драма
Продолжительность: 02:20:43
Перевод: профессиональный многоголосый, авторский
Режиссер: Мира Наир
В ролях: Риз Уизерспун, Анджелика Мэнди, Ромола Гарай, Джеймс Пьюрфой, Джонатан Рис-Майерс, Рис Иванс, Айлин Эткинс, Джеральдин МакЮэн, Тони Модсли, Дебора Файндлей, Джон Фрэнклин-Роббинс, Пол Базель, Гэбриел Бирн, Кейт Флитвуд, Чарли Билл, Дэвид Стерн, Боб Хоскинс, Дуглас Ходж, Мэг Винн Оуэн, Джорджина Эдмондс, Эмили Ричардсон, Тим Прис, Роджер Ллойд-Пэк, Наташа Литтл, Лиллет Дюбей, Рут Шин, Хелен Кокер, Тим Сили, Джим Бродбент, Софи Хантер, Пол Бенталл, Шон МакКензи, Кэтрин Дрисдейл, Джон Вудвайн, Барбара Ли-Хант, Николас Джонс, Шан Томас, Тревор Купер, Брайан Петтифер, Стивен Элдер

О фильме: Осиротевшая дочь художника и певицы Беки Шарп выросла в бедных кварталах Лондона, но всегда надеялась, что сможет войти в высшее общество. Используя ум, обаяние, красоту, хорошее воспитание, Беки начинает восходить по социальной лестнице вместе со своей подругой Амелией, отчаянно преодолевая противодействие общества... Фильм снят по мотивам романа Уильяма Мейкписа Теккерея «Ярмарка тщеславия» (Vanity Fair: A Novel without a Hero, 1847-1848).



Качество: BDRip-AVC
Формат: MKV
Видео: MPEG-4 AVC, 2165 Kбит/с, 1024x436, 23.976 Кадр/с
Аудио 1: русский, AC3, 384 kbps, 6 ch, 48 kHz [закадровый многоголосый, R5]
Аудио 2: русский, AC3, 192 kbps, 2 ch, 48 kHz [закадровый многоголосый, СВ Дубль]
Аудио 3: русский, AC3, 448 kbps, 6 ch, 48 kHz [авторский, Евгений Гранкин]
Аудио 4: английский, AC3, 448 kbps, 6 ch, 48 kHz [оригинал]
Субтитры 1: русские
Субтитры 2: английские
Главы/чаптеры
Общее
Уникальный идентификатор : 202380021465178341143790703852519994534 (0x9840F96EE81D1C1090ED416D91F8B4A6)
Полное имя : D:\Video\Ярмарка тщеславия.2004.BDRip-AVC by msltel.mkv
Формат : Matroska
Версия формата : Version 4
Размер файла : 3,58 Гбайт
Продолжительность : 2 ч. 20 м.
Общий поток : 3639 Кбит/сек
Название фильма : Rip by msltel
Дата кодирования : UTC 2020-02-25 02:05:10
Программа кодирования : mkvmerge v8.2.0 ('World of Adventure') 64bit
Библиотека кодирования : libebml v1.3.1 + libmatroska v1.4.2

Видео
Идентификатор : 1
Формат : AVC
Формат/Информация : Advanced Video Codec
Профиль формата : High@L4.1
Настройки формата : CABAC / 14 Ref Frames
Параметр CABAC формата : Да
Параметр RefFrames формата : 14 кадров
Идентификатор кодека : V_MPEG4/ISO/AVC
Продолжительность : 2 ч. 20 м.
Битрейт : 2165 Кбит/сек
Ширина : 1024 пикселя
Высота : 436 пикселей
Соотношение сторон : 2,35:1
Режим частоты кадров : Постоянный
Частота кадров : 23,976 (24000/1001) кадра/сек
Цветовое пространство : YUV
Субдискретизация насыщенности : 4:2:0
Битовая глубина : 8 бит
Тип развёртки : Прогрессивная
Бит/(Пиксели*Кадры) : 0.202
Размер потока : 2,13 Гбайт (59%)
Библиотека кодирования : x264 core 157 r2969 d4099dd
Настройки программы : cabac=1 / ref=14 / deblock=1:-2:-2 / analyse=0x3:0x113 / me=umh / subme=11 / psy=1 / psy_rd=1.00:0.15 / mixed_ref=1 / me_range=32 / chroma_me=1 / trellis=2 / 8x8dct=1 / cqm=0 / deadzone=21,11 / fast_pskip=0 / chroma_qp_offset=-3 / threads=6 / lookahead_threads=1 / sliced_threads=0 / nr=0 / decimate=1 / interlaced=0 / bluray_compat=0 / constrained_intra=0 / bframes=8 / b_pyramid=2 / b_adapt=2 / b_bias=0 / direct=1 / weightb=1 / open_gop=0 / weightp=2 / keyint=230 / keyint_min=23 / scenecut=40 / intra_refresh=0 / rc_lookahead=40 / rc=crf / mbtree=1 / crf=15.9 / qcomp=0.60 / qpmin=0 / qpmax=69 / qpstep=4 / vbv_maxrate=50000 / vbv_bufsize=62500 / crf_max=0.0 / nal_hrd=none / filler=0 / ip_ratio=1.40 / aq=1:1.00
Язык : English
Default : Да
Forced : Нет

Аудио #1
Идентификатор : 2
Формат : AC-3
Формат/Информация : Audio Coding 3
Коммерческое название : Dolby Digital
Идентификатор кодека : A_AC3
Продолжительность : 2 ч. 20 м.
Вид битрейта : Постоянный
Битрейт : 384 Кбит/сек
Каналы : 6 каналов
ChannelLayout : L R C LFE Ls Rs
Частота : 48,0 КГц
Частота кадров : 31,250 кадров/сек (1536 SPF)
Метод сжатия : С потерями
Размер потока : 386 Мбайт (11%)
Заголовок : MVO R5
Язык : Russian
ServiceKind/String : Complete Main
Default : Да
Forced : Нет

Аудио #2
Идентификатор : 3
Формат : AC-3
Формат/Информация : Audio Coding 3
Коммерческое название : Dolby Digital
Идентификатор кодека : A_AC3
Продолжительность : 2 ч. 20 м.
Вид битрейта : Постоянный
Битрейт : 192 Кбит/сек
Каналы : 2 канала
ChannelLayout : L R
Частота : 48,0 КГц
Частота кадров : 31,250 кадров/сек (1536 SPF)
Метод сжатия : С потерями
Размер потока : 193 Мбайт (5%)
Заголовок : MVO СВ Дубль
Язык : Russian
ServiceKind/String : Complete Main
Default : Нет
Forced : Нет

Аудио #3
Идентификатор : 4
Формат : AC-3
Формат/Информация : Audio Coding 3
Коммерческое название : Dolby Digital
Идентификатор кодека : A_AC3
Продолжительность : 2 ч. 20 м.
Вид битрейта : Постоянный
Битрейт : 448 Кбит/сек
Каналы : 6 каналов
ChannelLayout : L R C LFE Ls Rs
Частота : 48,0 КГц
Частота кадров : 31,250 кадров/сек (1536 SPF)
Метод сжатия : С потерями
Размер потока : 451 Мбайт (12%)
Заголовок : Евгений Гранкин
Язык : Russian
ServiceKind/String : Complete Main
Default : Нет
Forced : Нет

Аудио #4
Идентификатор : 5
Формат : AC-3
Формат/Информация : Audio Coding 3
Коммерческое название : Dolby Digital
Идентификатор кодека : A_AC3
Продолжительность : 2 ч. 20 м.
Вид битрейта : Постоянный
Битрейт : 448 Кбит/сек
Каналы : 6 каналов
ChannelLayout : L R C LFE Ls Rs
Частота : 48,0 КГц
Частота кадров : 31,250 кадров/сек (1536 SPF)
Метод сжатия : С потерями
Размер потока : 451 Мбайт (12%)
Заголовок : orginal
Язык : English
ServiceKind/String : Complete Main
Default : Нет
Forced : Нет

Текст #1
Идентификатор : 6
Формат : UTF-8
Идентификатор кодека : S_TEXT/UTF8
Идентификатор кодека/Информация : UTF-8 Plain Text
Продолжительность : 2 ч. 16 м.
Битрейт : 97 бит/сек
ElementCount : 1485
Размер потока : 97,4 Кбайт (0%)
Заголовок : русские
Язык : Russian
Default : Нет
Forced : Нет

Текст #2
Идентификатор : 7
Формат : UTF-8
Идентификатор кодека : S_TEXT/UTF8
Идентификатор кодека/Информация : UTF-8 Plain Text
Продолжительность : 2 ч. 15 м.
Битрейт : 49 бит/сек
ElementCount : 1536
Размер потока : 49,6 Кбайт (0%)
Заголовок : английские
Язык : English
Default : Нет
Forced : Нет

Меню
00:00:00.000 : :Main Titles
00:01:39.349 : :Miss Pinkerton's Academy
00:08:10.031 : :Taste of Chilli
00:16:17.685 : :Blessing in Disguise
00:23:20.482 : :Amusing Miss Crawley
00:32:12.055 : :Social Climber
00:44:28.916 : :Vows and Vanity
00:52:49.040 : :Imprudent Marraige
01:02:48.014 : :A Groom's Indiscretion
01:14:40.225 : :A Time of War
01:23:05.772 : :Bearing the Burden
01:35:06.617 : :Last Will
01:39:36.804 : :Now Sleeps the Crimson Petal
01:50:41.760 : :Queen of the Night
01:57:28.416 : :Intimate Betrayal
02:03:48.504 : :A Love Unreturned
02:10:46.463 : :The Beautiful Mrs. Crawley
02:16:16.793 : :End Titles
piratbit.org



Скачать Ярмарка тщеславия через торрент https://a.radikal.ru/a12/2002/94/2a0834a7fb6f.jpg Скачать фильм Ярмарка тщеславия через торрент бесплантно в хорошем качестве О фильме: Осиротевшая дочь художника и певицы Беки Шарп выросла в бедных кварталах Лондона, но всегда надеялась, что сможет войти в высшее ... 5 10 1
Торрент: Зарегистрирован [2020-02-25 06:21] · скачан: 7 раз
Статус: √ проверено
Размер: 3.58 GB
Как cкачать? Как скачать Ярмарка тщеславия через торрент | UTorrent

% Раздел Тема Автор DL S | L
Фильмы [HD 720p, 1080p] (Хороший звук DUB, MVO) [ 14.5 GB ] Ярмарка тщеславия / Vanity Fair [2004 BDRip 1080p by msltel] 2 x MVO AVO msltel Скачать
1 | 0
Фильмы [HD 720p, 1080p] (Хороший звук DUB, MVO) [ 5.93 GB ] Ярмарка тщеславия / Vanity Fair [2004 BDRip 720p by msltel] 2 x MVO AVO msltel Скачать
1 | 0

28-11-2019 20:33  

Отключить всю рекламу на сайте

    Дорогой пользователь! Огромная просьба, поблагодарите релизера, оцените раздачу и оставьте свои комментарий, если Вы скачали Ярмарка тщеславия через торрент бесплатно! Внесите свою лепту в развитие PiratBit!
    Комментировать посты могут только пользователи прошедшие не сложную регистрацию
    Показать сообщения:    

    Ярмарка тщеславия через торрент
    Скачать бесплатно Ярмарка тщеславия
    Ярмарка тщеславия скачать торрент
    Ярмарка тщеславия смотреть онлайн
    Cкачать фильм Ярмарка тщеславия бесплатно
    Ярмарка тщеславия скачать торрент в хорошем качестве
    Ярмарка тщеславия смотреть онлайн бесплатно в хорошем качестве


    Вы не можете начинать темы
    Вы не можете отвечать на сообщения
    Вы не можете редактировать свои сообщения
    Вы не можете удалять свои сообщения
    Вы не можете голосовать в опросах
    Вы не можете прикреплять файлы к сообщениям
    Вы можете скачивать файлы