Ссылка на приватное зеркало всего за 1$. Внимание количество ограничено!!!

iTunes

iTunes

iTunes

1

iTunes

iTunes

iTunes

iTunes

iTunes

30
pack

Новость дня

ВАЖНО

!!Акция!!

Alien_RageХит недели

RePack

Resident Evil 21

ИГРА 18+

pack

RePack

jed

!!Акция!!

Alien_Rage

RePack

fifa19

RePack

Assassins Creed: Odyssey

RePack

NEED FOR SPEED™ PAYBACK

4 сезон

9 сезон

Бесстыжие 9 сезон

Все сериалы

все сериалы на PB.wtf

RePack

FAR CRY 5
  

НольНольНоль / ZeroZeroZero / Сезон: 1 / Серии: 1-8 из 8 (Янус Мец, Пабло Траперо, Стефано Соллима) [2020, Криминал, драма, триллер, WEBRip] MVO [TVShows] piratbit.org

НольНольНоль через торрент piratbit.org

Раздают: 1 [ 0 KB/s ]
Размер: 7.36 GB | Добавлен: 10 д. назад | Торрент скачан:6 раз
Скачать  

26-02-2020 16:43 НольНольНоль Скачать торрент  

НольНольНоль | ZeroZeroZero
Год выпуска: 2020
Страна: Италия
Жанр: Криминал, драма, триллер
Продолжительность: ~ 01:00:00
Перевод: Профессиональный (многоголосый) | TVShows
Субтитры: отсутствуют

Режиссер: Янус Мец, Пабло Траперо, Стефано Соллима

rating


В ролях: Андреа Райзборо, Дэйн ДеХаан, Гэбриел Бирн, Эрик Израэль Консуэло, Джузеппе Де Доменико, Маурисио Мендес, Арольд Торрес, Диего Катаньо, Хесус Лозаньо, Армандо Комонфорт Сантьяго

Описание: В Калабрии глава мафиозного клана дон Муно прячется от врагов в подземном бункере и заказывает крупную партию кокаина на 900 млн евро. Дон Муно не знает, что внук Стефано его ненавидит, хочет скормить свиньям и планирует предательство. Между тем в Мехико спецотряд по борьбе с наркотиками проводит операцию, героем которой становится оперативник по кличке Вампиро. Никто не знает, что он работает на местных наркобаронов и должен обеспечить трафик той самой партии для дона Муно.

Качество: WEBRip
Формат: AVI

Видео: XVID, 720x304, 25.000 fps, ~2000 kbps avg, 0.36 bit/pixel
Аудио Rus: AC3, 48.0 KHz, 6 channels, 384 kbps
скриншот  скриншот  скриншот  скриншот  

General
Complete name : F:\НольНольНоль (Сезон 1) TVShows\ZeroZeroZero.S01E01.WEBRip.RGzsRutracker.Celta88.avi
Format : AVI
Format/Info : Audio Video Interleave
File size : 978 MiB
Duration : 57 min 9 s
Overall bit rate : 2 394 kb/s
Writing application : VirtualDubMod 1.5.10.3 | www.virtualdub-fr.org || (build 2550/release)
Writing library : VirtualDubMod build 2550/release

Video
ID : 0
Format : MPEG-4 Visual
Format profile : Advanced Simple@L5
Format settings, BVOP : 1
Format settings, QPel : No
Format settings, GMC : No warppoints
Format settings, Matrix : Custom
Codec ID : XVID
Codec ID/Hint : XviD
Duration : 57 min 9 s
Bit rate : 2 000 kb/s
Width : 720 pixels
Height : 304 pixels
Display aspect ratio : 2.35:1
Frame rate : 25.000 FPS
Color space : YUV
Chroma subsampling : 4:2:0
Bit depth : 8 bits
Scan type : Progressive
Compression mode : Lossy
Bits/(Pixel*Frame) : 0.365
Stream size : 817 MiB (84%)
Writing library : XviD 73

Audio
ID : 1
Format : AC-3
Format/Info : Audio Coding 3
Mode extension : CM (complete main)
Format settings, Endianness : Big
Codec ID : 2000
Duration : 57 min 9 s
Bit rate mode : Constant
Bit rate : 384 kb/s
Channel(s) : 6 channels
Channel positions : Front: L C R, Side: L R, LFE
Sampling rate : 48.0 kHz
Frame rate : 31.250 FPS (1536 spf)
Bit depth : 16 bits
Compression mode : Lossy
Stream size : 157 MiB (16%)
Alignment : Split accross interleaves
Interleave, duration : 40 ms (1.00 video frame)
Interleave, preload duratio : 500 ms

Внимание! Раздача ведётся путём добавления новых серий; при каждом добавлении создаётся новый торрент. Чтобы начать докачку новой серии, пользователям необходимо сделать следующее:
(1) остановить скачивание,
(2) удалить старый торрент у себя из клиента (старые серии удалять не надо),
(3) скачать новый торрент и запустить его у себя в клиенте вместо старого, при этом указать клиенту путь в старую папку куда и должно происходить скачивание новых серий.

Ваш клиент при этом должен произвести хеширование (проверку) старой папки (если не производит сам - помогите ему сделать это), и будет докачивать только те серии которых у вас ещё нет. Старые серии при этом не удаляются, а продолжают раздаваться!

Eсли вы уже удалили старые серии, то предотвратить повторную закачку старых серий можно, отжав галочку в соответсвующих местах при запуске нового торрента. По возможности, желательно не удалять старые серии как можно дольше чтобы релизёр не столько продолжал раздавать старые серии, а смог сконцентрироваться на новых.
piratbit.org



Скачать НольНольНоль через торрент https://d.radikal.ru/d17/2002/28/642ce6af4531.jpg Скачать фильм НольНольНоль через торрент бесплантно в хорошем качестве Описание: В Калабрии глава мафиозного клана дон Муно прячется от врагов в подземном бункере и заказывает крупную партию кокаина на 900 млн ... 10 10 4
Торрент: Зарегистрирован [2020-03-26 00:57] · скачан: 6 раз
Статус: √ проверено
Размер: 7.36 GB
Как cкачать? Как скачать НольНольНоль через торрент | qTorrent

% Раздел Тема Автор DL S | L
Зарубежные сериалы [ 11.54 GB ] НольНольНоль / ZeroZeroZero / Сезон: 1 / Серии: 1-8 из 8 [2020 WEB-DL 720p] 2xMVO bober100 Скачать
2 | 0
Зарубежные сериалы [ 7.36 GB ] НольНольНоль / ZeroZeroZero / Сезон: 1 / Серии: 1-8 из 8 [2020 WEB-DLRip] MVO [Кравец-Рекордз / Amedia] Twi7ter Скачать
39 | 4
Фильмы с авторской озвучкой [ 6.13 GB ] НольНольНоль / ZeroZeroZero / Сезон: 1 / Серии: 1-8 из 8 [2020 WEB-DLRip] AVO [Ю. Сербин] bober100 Скачать
2 | 0
Зарубежные сериалы [ 15.68 GB ] НольНольНоль / ZeroZeroZero / Сезон: 1 / Серии: 1-8 из 8 [2020 WEB-DL 1080p] MVO [LostFilm] bober100 Скачать
2 | 1
Зарубежные сериалы [ 1.87 GB ] НольНольНоль / ZeroZeroZero / Сезон: 1 / Серии: 1- из 8 [2020 WEB-DL 720p] MVO [LostFilm] bober100 Скачать
2 | 0
Зарубежные сериалы [ 14.44 GB ] НольНольНоль / ZeroZeroZero / Сезон: 1 / Серии: 1-8 из 8 [2020 WEB-DL 1080p] MVO [TVShows] bober100 Скачать
1 | 1
Зарубежные сериалы [ 9.08 GB ] НольНольНоль / ZeroZeroZero / Сезон: 1 / Серии: 1-8 из 8 [2020 WEB-DL 720p] MVO [TVShows] bober100 Скачать
2 | 0

28-11-2019 20:33  

Отключить всю рекламу на сайте

    Дорогой пользователь! Огромная просьба, поблагодарите релизера, оцените раздачу и оставьте свои комментарий, если Вы скачали НольНольНоль через торрент бесплатно! Внесите свою лепту в развитие PiratBit!
    Комментировать посты могут только пользователи прошедшие не сложную регистрацию
    Показать сообщения:    

    НольНольНоль через торрент
    Скачать бесплатно НольНольНоль
    НольНольНоль скачать торрент
    НольНольНоль смотреть онлайн
    Cкачать фильм НольНольНоль бесплатно
    НольНольНоль скачать торрент в хорошем качестве
    НольНольНоль смотреть онлайн бесплатно в хорошем качестве


    Вы не можете начинать темы
    Вы не можете отвечать на сообщения
    Вы не можете редактировать свои сообщения
    Вы не можете удалять свои сообщения
    Вы не можете голосовать в опросах
    Вы не можете прикреплять файлы к сообщениям
    Вы можете скачивать файлы