Ссылка на приватное зеркало всего за 1$. Внимание количество ограничено!!!

iTunes

iTunes

iTunes

1

iTunes

iTunes

iTunes

iTunes

iTunes

30
pack

Новость дня

ВАЖНО

!!Акция!!

Alien_RageХит недели

RePack

Resident Evil 21

ИГРА 18+

pack

RePack

jed

!!Акция!!

Alien_Rage

RePack

fifa19

RePack

Assassins Creed: Odyssey

RePack

NEED FOR SPEED™ PAYBACK

4 сезон

9 сезон

Бесстыжие 9 сезон

Все сериалы

все сериалы на PB.wtf

RePack

FAR CRY 5
  

Счастливое число 5 / 5 è il numero perfetto (Игорь Тувери) [2019, Драма, триллер, криминал, боевик, WEB-DL 1080p] DUB [iTunes] piratbit.org

Счастливое число 5 через торрент piratbit.org

Раздают: 3 [ 0 KB/s ]
Размер: 3.7 GB | Добавлен: 1 мес. 12 д. назад | Торрент скачан:140 раз
Скачать  

26-02-2020 20:41 Счастливое число 5 Скачать торрент  

Счастливое число 5 | 5 è il numero perfetto
Год выпуска: 2019
Страна: Италия, Бельгия, Франция
Жанр: Драма, триллер, криминал, боевик
Продолжительность: 01:46:38
Перевод: Дублированный | iTunes
Субтитры: отсутствуют

Режиссер: Игорь Тувери

rating

В ролях: Тони Сервилло, Валерия Голино, Карло Буччироссо, Яя Форте, Джованни Лудено, Лоренцо Ланселлотти, Винченцо Немолато, Мануэла Ламанна, Эмануеле Носерино, Анджело Курти

Описание: 70-е годы. Неаполь, криминальная столица Италии. Наемный убийца по прозвищу Маленький Цицерон постарел и ушел на покой, оставив свой опасный бизнес красавцу-сыну. Но того вероломно убивают, и Маленький Цицерон вынужден вспомнить свое свирепое прошлое, чтобы безжалостно отомстить всем виновным. На помощь ему приходят бывший подельник Тото-мясник и верная боевая подруга Рита, которая не словом, а делом доказывает, что старая любовь не ржавеет, как и пули в хорошем пистолете...

Качество: WEB-DL 1080p
Формат: MKV

Видео: MPEG-4 AVC, 4581 Кбит/с, 1920x806
Аудио: 48 kHz, AC3 Dolby Digital, 3/2 (L,C,R,l,r) + LFE ch, ~384 kbps
скриншот  скриншот  скриншот  скриншот  

Video
ID : 1
Format : AVC
Format/Info : Advanced Video Codec
Format profile : High@L4
Format settings : CABAC / 5 Ref Frames
Format settings, CABAC : Yes
Format settings, Reference : 5 frames
Codec ID : V_MPEG4/ISO/AVC
Duration : 1 h 46 min
Bit rate : 4 581 kb/s
Width : 1 920 pixels
Height : 806 pixels
Display aspect ratio : 2.40:1
Frame rate mode : Constant
Frame rate : 24.000 FPS
Color space : YUV
Chroma subsampling : 4:2:0
Bit depth : 8 bits
Scan type : Progressive
Bits/(Pixel*Frame) : 0.123
Stream size : 3.41 GiB (92%)
Title : LUCKY_NUMBER_5_2019_WEB-DL_1080p-BLUEBIRD
Language : English
Default : Yes
Forced : No
Color range : Limited
Color primaries : BT.709
Transfer characteristics : BT.709
Matrix coefficients : BT.709

Audio
ID : 2
Format : AC-3
Format/Info : Audio Coding 3
Commercial name : Dolby Digital
Codec ID : A_AC3
Duration : 1 h 46 min
Bit rate mode : Constant
Bit rate : 384 kb/s
Channel(s) : 6 channels
Channel layout : L R C LFE Ls Rs
Sampling rate : 48.0 kHz
Frame rate : 31.250 FPS (1536 SPF)
Compression mode : Lossy
Delay relative to video : -42 ms
Stream size : 293 MiB (8%)
Title : [DUB] DD 5.1 @ 384 kbps (iTunes)
Language : Russian
Service kind : Complete Main
Default : Yes
Forced : No

Menu
00:00:00.000 : en:Глава 1
00:08:59.458 : en:Глава 2
00:17:21.416 : en:Глава 3
00:25:47.249 : en:Глава 4
00:34:01.665 : en:Глава 5
00:43:07.415 : en:Глава 6
00:52:04.915 : en:Глава 7
01:01:21.998 : en:Глава 8
01:09:26.873 : en:Глава 9
01:17:52.289 : en:Глава 10
01:26:47.455 : en:Глава 11
01:36:28.038 : en:Глава 12

piratbit.org



Скачать Счастливое число 5 через торрент https://i111.fastpic.ru/big/2020/0226/5c/f66bb4c35eba2abdd75707e05e25a45c.jpg Скачать фильм Счастливое число 5 через торрент бесплантно в хорошем качестве Описание: 70-е годы. Неаполь, криминальная столица Италии. Наемный убийца по прозвищу Маленький Цицерон постарел и ушел на покой, оставив ... 10 10 11
Торрент: Зарегистрирован [2020-02-26 20:41] · скачан: 140 раз
Статус: √ проверено
Размер: 3.7 GB
Как cкачать? Как скачать Счастливое число 5 через торрент | qTorrent

% Раздел Тема Автор DL S | L
Фильмы 2019-2020 [DVDrip, WEB-DLRip, HDrip] (DUB, MVO) [ 2.15 GB ] Счастливое число 5 / 5 è il numero perfetto [2019 BDRip-AVC DUB ] Лакомка Скачать
3 | 0
Фильмы 2019-2020 [DVDrip, WEB-DLRip, HDrip] (DUB, MVO) [ 1.45 GB ] Счастливое число 5 / 5 è il numero perfetto [2019 HDRip] bober100 Скачать
4 | 0

28-11-2019 20:33  

Отключить всю рекламу на сайте

    Дорогой пользователь! Огромная просьба, поблагодарите релизера, оцените раздачу и оставьте свои комментарий, если Вы скачали Счастливое число 5 через торрент бесплатно! Внесите свою лепту в развитие PiratBit!
    Комментировать посты могут только пользователи прошедшие не сложную регистрацию
    Показать сообщения:    

    Счастливое число 5 через торрент
    Скачать бесплатно Счастливое число 5
    Счастливое число 5 скачать торрент
    Счастливое число 5 смотреть онлайн
    Cкачать фильм Счастливое число 5 бесплатно
    Счастливое число 5 скачать торрент в хорошем качестве
    Счастливое число 5 смотреть онлайн бесплатно в хорошем качестве


    Вы не можете начинать темы
    Вы не можете отвечать на сообщения
    Вы не можете редактировать свои сообщения
    Вы не можете удалять свои сообщения
    Вы не можете голосовать в опросах
    Вы не можете прикреплять файлы к сообщениям
    Вы можете скачивать файлы