Ссылка на приватное зеркало всего за 1$. Внимание количество ограничено!!!

iTunes

iTunes

iTunes

1

iTunes

iTunes

iTunes

iTunes

iTunes

30
pack

Новость дня

ВАЖНО

!!Акция!!

Alien_RageХит недели

RePack

Resident Evil 21

ИГРА 18+

pack

RePack

jed

!!Акция!!

Alien_Rage

RePack

fifa19

RePack

Assassins Creed: Odyssey

RePack

NEED FOR SPEED™ PAYBACK

4 сезон

9 сезон

Бесстыжие 9 сезон

Все сериалы

все сериалы на PB.wtf

RePack

FAR CRY 5
  

Золотое кольцо (Шота Гамисония) [2020, Комедия, WEB-DLRip-AVC] piratbit.org

Золотое кольцо через торрент piratbit.org

Раздают: 5 [ 0 KB/s ]
Размер: 1.32 GB | Добавлен: 1 мес. 11 д. назад | Торрент скачан:216 раз
Скачать  

27-02-2020 04:27 Золотое кольцо Скачать торрент  

Золотое кольцо
Год выпуска: 2020
Страна: Россия
Жанр: Комедия
Продолжительность: 01:26:23
Субтитры: отсутствуют

Режиссер: Шота Гамисония

В ролях: Аглая Тарасова, Кирилл Каганович, Вера Строкова, Владимир Яглыч, Ольга Дибцева, Семён Штейнберг, Евгений Стычкин

Описание: Куда поехать в отпуск трем семейным парам? Прокатиться по Западной Европе? Слетать в Тай или на Бали? В крайнем случае сгонять в Прибалтику. Вариантов много, но главные герои выбирают путешествие по России. Для них будущая поездка не просто туризм, а способ решить накопившиеся проблемы в парах.

Качество: WEB-DLRip-AVC
Формат: MKV

Видео: 1024х428 (2,40:1), 25 fps, AVC MPEG-4 (x264), High@L4.1 ~ 2000 kbps avg, 0.183 bit/pixel
Аудио: 48.0 kHz, AC3 Dolby Digital, 2/0 (L,R) ch, ~ 192 kbps
скриншот  скриншот  скриншот  скриншот  

Общее
Уникальный идентификатор : 222955395994311768148281726266331739012 (0xA7BBA5B820B1A940A1F65DCEB969B384)
Полное имя : C:\Zolotoe.kolco.2020.WEB-DLRip.(AVC).ExKinoRay.mkv
Формат : Matroska
Версия формата : Version 2
Размер файла : 1,32 Гбайт
Продолжительность : 1 ч. 26 м.
Общий поток : 2193 Кбит/сек
Дата кодирования : UTC 2020-02-26 22:49:14
Программа кодирования : mkvmerge v7.8.0 ('River Man') 32bit built on Apr 3 2015 12:11:22
Библиотека кодирования : libebml v1.3.1 + libmatroska v1.4.2

Видео
Идентификатор : 1
Формат : AVC
Формат/Информация : Advanced Video Codec
Профиль формата : High@L4.1
Настройки формата : CABAC / 10 Ref Frames
Параметр CABAC формата : Да
Параметр RefFrames формата : 10 кадров
Идентификатор кодека : V_MPEG4/ISO/AVC
Продолжительность : 1 ч. 26 м.
Битрейт : 2000 Кбит/сек
Ширина : 1024 пикселя
Высота : 428 пикселей
Соотношение сторон : 2,40:1
Режим частоты кадров : Постоянный
Частота кадров : 25,000 кадров/сек
Цветовое пространство : YUV
Субдискретизация насыщенности : 4:2:0
Битовая глубина : 8 бит
Тип развёртки : Прогрессивная
Бит/(Пиксели*Кадры) : 0.183
Размер потока : 1,18 Гбайт (89%)
Библиотека кодирования : x264 core 146 r2538 121396c
Настройки программы : cabac=1 / ref=10 / deblock=1:-3:-3 / analyse=0x3:0x113 / me=umh / subme=11 / psy=1 / psy_rd=1.00:0.20 / mixed_ref=1 / me_range=32 / chroma_me=1 / trellis=2 / 8x8dct=1 / cqm=0 / deadzone=21,11 / fast_pskip=1 / chroma_qp_offset=-3 / threads=24 / lookahead_threads=6 / sliced_threads=0 / nr=0 / decimate=0 / interlaced=0 / bluray_compat=0 / constrained_intra=0 / bframes=11 / b_pyramid=2 / b_adapt=2 / b_bias=0 / direct=3 / weightb=1 / open_gop=0 / weightp=2 / keyint=250 / keyint_min=25 / scenecut=40 / intra_refresh=0 / rc_lookahead=60 / rc=2pass / mbtree=1 / bitrate=2000 / ratetol=1.0 / qcomp=0.60 / qpmin=0 / qpmax=69 / qpstep=4 / cplxblur=20.0 / qblur=0.5 / vbv_maxrate=14000 / vbv_bufsize=14000 / nal_hrd=none / filler=0 / ip_ratio=1.40 / aq=3:1.40
Default : Да
Forced : Нет
Цветовой диапазон : Limited
Основные цвета : BT.709
Характеристики трансфера : BT.709
Коэффициенты матрицы : BT.709

Аудио
Идентификатор : 2
Формат : AC-3
Формат/Информация : Audio Coding 3
Коммерческое название : Dolby Digital
Идентификатор кодека : A_AC3
Продолжительность : 1 ч. 26 м.
Вид битрейта : Постоянный
Битрейт : 192 Кбит/сек
Каналы : 2 канала
ChannelLayout : L R
Частота : 48,0 КГц
Частота кадров : 31,250 кадров/сек (1536 SPF)
Метод сжатия : С потерями
Размер потока : 119 Мбайт (9%)
ServiceKind/String : Complete Main
Default : Да
Forced : Нет

piratbit.org



Скачать Золотое кольцо через торрент https://img10.lostpic.net/2020/02/27/69e0192fa9b2f3fbc435a760ec3104d7.th.jpg Скачать фильм Золотое кольцо через торрент бесплантно в хорошем качестве Описание: Куда поехать в отпуск трем семейным парам? Прокатиться по Западной Европе? Слетать в Тай или на Бали? В крайнем случае сгонять в ... 10 10 8
Торрент: Зарегистрирован [2020-02-27 04:27] · скачан: 216 раз
Статус: √ проверено
Размер: 1.32 GB
Как cкачать? Как скачать Золотое кольцо через торрент | qTorrent

% Раздел Тема Автор DL S | L
Наши новые фильмы 2018-2019 [ 1.37 GB ] Золотое кольцо [2020 WEB-DLRip] bober100 Скачать
7 | 0
Наши фильмы (HD, WEB-DL 720p, 1080p) [ 2.81 GB ] Золотое кольцо [2020 WEB-DL 1080p] bober100 Скачать
6 | 0
Наши фильмы (HD, WEB-DL 720p, 1080p) [ 1.91 GB ] Золотое кольцо [2020 WEB-DL 720p] bober100 Скачать
1 | 0
Ultra HD (UHD: 2K, 4K, 8K) — видео сверхвысокой чёткости [ 67.46 GB ] Kingsman: Золотое кольцо / Kingsman: The Golden Circle [2017 UHD BDRemux 2160p] DUB [] + 4xAVO sheker187 Скачать
1 | 0
Фильмы (Blu-ray, BD-Remux, HDDVD) [ 47.83 GB ] Kingsman: Золотое кольцо / Kingsman: The Golden Circle [2017 BD Remux 1080p] 3xAVO+2xDUB [] bober100 Скачать
1 | 1
Отечественная Поп музыка (lossless) [ 595 MB ] Надежда Кадышева и Золотое кольцо - Дуэты 2016 / FLAC / lossless / Pop Pop-Folk bober100 Скачать
2 | 0
Отечественная Поп музыка (mp3) [ 110 MB ] Надежда Кадышева и ансамбль «Золотое кольцо» - Всё как прежде 2018 / MP3 / 320 kbps / Фолк-музыка Поп-музыка bober100 Скачать
1 | 0

28-11-2019 20:33  

Отключить всю рекламу на сайте

    Дорогой пользователь! Огромная просьба, поблагодарите релизера, оцените раздачу и оставьте свои комментарий, если Вы скачали Золотое кольцо через торрент бесплатно! Внесите свою лепту в развитие PiratBit!
    Комментировать посты могут только пользователи прошедшие не сложную регистрацию
    Показать сообщения:    

    Золотое кольцо через торрент
    Скачать бесплатно Золотое кольцо
    Золотое кольцо скачать торрент
    Золотое кольцо смотреть онлайн
    Cкачать фильм Золотое кольцо бесплатно
    Золотое кольцо скачать торрент в хорошем качестве
    Золотое кольцо смотреть онлайн бесплатно в хорошем качестве


    Вы не можете начинать темы
    Вы не можете отвечать на сообщения
    Вы не можете редактировать свои сообщения
    Вы не можете удалять свои сообщения
    Вы не можете голосовать в опросах
    Вы не можете прикреплять файлы к сообщениям
    Вы можете скачивать файлы