Ссылка на приватное зеркало всего за 1$. Внимание количество ограничено!!!

iTunes

iTunes

iTunes

1

iTunes

iTunes

iTunes

iTunes

iTunes

30
pack

Новость дня

ВАЖНО

!!Акция!!

Alien_RageХит недели

RePack

Resident Evil 21

ИГРА 18+

pack

RePack

jed

!!Акция!!

Alien_Rage

RePack

fifa19

RePack

Assassins Creed: Odyssey

RePack

NEED FOR SPEED™ PAYBACK

4 сезон

9 сезон

Бесстыжие 9 сезон

Все сериалы

все сериалы на PB.wtf

RePack

FAR CRY 5
  

Особо тяжкие преступления / High Crimes (Карл Франклин) [2002, драма, криминал, детектив,триллер, BDRip 1080p by msltel] DUB, MVO, DVO, 3 x AVO, VO piratbit.org

Особо тяжкие преступления через торрент piratbit.org

Раздают: 1 [ 0 KB/s ]
Размер: 16.99 GB | Добавлен: 1 мес. 11 д. назад | Торрент скачан:22 раза
Скачать  

27-02-2020 06:19 Особо тяжкие преступления Скачать торрент  

Название: Особо тяжкие преступления
Оригинальное название: High Crimes
Год выпуска: 2002
Страна: США
Жанр: драма, криминал, детектив,триллер
Продолжительность: 01:55:13
Перевод: дублированный, профессиональный многоголосый, профессиональный двухголосый, авторский, любительский одноголосый
Режиссер: Карл Франклин
В ролях: Эшли Джадд, Морган Фримен, Джеймс Кэвизел, Адам Скотт, Аманда Пит, Брюс Дэвисон, Том Бауэр, Хуан Карлос Эрнандес, Майкл Гэстон, Джуд Чикколелла, Эмилио Ривера, Майкл Шеннон, Джон Биллингсли, Дендри Тейлор, Пола Джей Паркер, Джон Аписелла

О фильме: Успешный адвокат Клэр Кубик живёт со своим мужем Томом. После неудавшейся попытки грабежа их дома к ним обращается ФБР и арестовывает её мужа. Его, под прежним именем Рональда Чапмэна, обвиняют в убийстве гражданских сальвадорцев в 1988 году. Чапмэн служил в морской пехоте США и был в бегах в течение двенадцати лет. Том признает свою причастность к операции, которая привела к убийствам гражданских жителей, в которых его обвиняют, однако он утверждает, что невиновен, а был сделан козлом отпущения, потому что только он мог опознать тех, кто действительно совершил убийства. Клэр готова защитить её мужа в военном суде. Ей помогает Чарли Граймс, бывший военный адвокат, недовольный военным руководством. Они начинают раскрывать прикрытие, сделанное одним из офицеров самого высокого ранга. Ключевые свидетели умерли. А карьера Клэр и даже её жизнь находятся в опасности... Фильм основан на романе Джозефа Файндера. (Википедия)



Качество: BDRip 1080p
Формат: MKV
Видео: MPEG-4 AVC, 15.7 Mбит/с, 1920x820
Аудио 1: русский, DTS, 768 kbps, 6 ch, 48 kHz [дублированный]
Аудио 2: русский, AC3, 448 kbps, 6 ch, 48 kHz [закадровый многоголосый]
Аудио 3: русский, AC3, 448 kbps, 6 ch, 48 kHz [закадровый двухголосый, с DVD]
Аудио 4: русский, AC3, 384 kbps, 6 ch, 48 kHz [авторский, Леонид Володарский]
Аудио 5: русский, AC3, 192 kbps, 2 ch, 48 kHz [авторский, Антон Карповский]
Аудио 6: русский, DTS, 1509 kbps, 6 ch, 48 kHz [авторский, Владимир Королёв]
Аудио 7: русский, AC3, 192 kbps, 2 ch, 48 kHz [закадровый одноголосый]
Аудио 8: английский, DTS, 1509 kbps, 6 ch, 48 kHz [оригинал]
Субтитры 1: русские
Субтитры 2: английские
Главы/чаптеры
Общее
Уникальный идентификатор : 249592895636464068794137069810728892623 (0xBBC5D7D96A8E41B5BDBDD3B28094F8CF)
Полное имя : D:\Video\Особо тяжкие преступления.2002.BDRip 1080p by msltel.mkv
Формат : Matroska
Версия формата : Version 4
Размер файла : 17,0 Гбайт
Продолжительность : 1 ч. 55 м.
Общий поток : 21,1 Мбит/сек
Дата кодирования : UTC 2020-02-26 15:50:07
Программа кодирования : mkvmerge v8.2.0 ('World of Adventure') 64bit
Библиотека кодирования : libebml v1.3.1 + libmatroska v1.4.2

Видео
Идентификатор : 1
Формат : AVC
Формат/Информация : Advanced Video Codec
Профиль формата : High@L4.1
Настройки формата : CABAC / 5 Ref Frames
Параметр CABAC формата : Да
Параметр RefFrames формата : 5 кадров
Идентификатор кодека : V_MPEG4/ISO/AVC
Продолжительность : 1 ч. 55 м.
Битрейт : 15,7 Мбит/сек
Ширина : 1920 пикселей
Высота : 820 пикселей
Соотношение сторон : 2,35:1
Режим частоты кадров : Постоянный
Частота кадров : 23,976 (24000/1001) кадра/сек
Цветовое пространство : YUV
Субдискретизация насыщенности : 4:2:0
Битовая глубина : 8 бит
Тип развёртки : Прогрессивная
Бит/(Пиксели*Кадры) : 0.415
Размер потока : 12,6 Гбайт (74%)
Библиотека кодирования : x264 core 157 r2969 d4099dd
Настройки программы : cabac=1 / ref=5 / deblock=1:-2:-2 / analyse=0x3:0x113 / me=umh / subme=11 / psy=1 / psy_rd=1.00:0.15 / mixed_ref=1 / me_range=32 / chroma_me=1 / trellis=2 / 8x8dct=1 / cqm=0 / deadzone=21,11 / fast_pskip=0 / chroma_qp_offset=-3 / threads=6 / lookahead_threads=1 / sliced_threads=0 / nr=0 / decimate=1 / interlaced=0 / bluray_compat=0 / constrained_intra=0 / bframes=8 / b_pyramid=2 / b_adapt=2 / b_bias=0 / direct=1 / weightb=1 / open_gop=0 / weightp=2 / keyint=230 / keyint_min=23 / scenecut=40 / intra_refresh=0 / rc_lookahead=40 / rc=crf / mbtree=1 / crf=18.3 / qcomp=0.60 / qpmin=0 / qpmax=69 / qpstep=4 / vbv_maxrate=50000 / vbv_bufsize=62500 / crf_max=0.0 / nal_hrd=none / filler=0 / ip_ratio=1.40 / aq=1:1.00
Язык : English
Default : Да
Forced : Нет

Аудио #1
Идентификатор : 2
Формат : DTS
Формат/Информация : Digital Theater Systems
Идентификатор кодека : A_DTS
Продолжительность : 1 ч. 55 м.
Вид битрейта : Постоянный
Битрейт : 768 Кбит/сек
Каналы : 6 каналов
ChannelLayout : C L R Ls Rs LFE
Частота : 48,0 КГц
Частота кадров : 93,750 кадра/сек (512 SPF)
Битовая глубина : 24 бит
Метод сжатия : С потерями
Размер потока : 633 Мбайт (4%)
Заголовок : DUB
Язык : Russian
Default : Да
Forced : Нет

Аудио #2
Идентификатор : 3
Формат : AC-3
Формат/Информация : Audio Coding 3
Коммерческое название : Dolby Digital
Идентификатор кодека : A_AC3
Продолжительность : 1 ч. 55 м.
Вид битрейта : Постоянный
Битрейт : 448 Кбит/сек
Каналы : 6 каналов
ChannelLayout : L R C LFE Ls Rs
Частота : 48,0 КГц
Частота кадров : 31,250 кадров/сек (1536 SPF)
Метод сжатия : С потерями
Размер потока : 369 Мбайт (2%)
Заголовок : MVO
Язык : Russian
ServiceKind/String : Complete Main
Default : Нет
Forced : Нет

Аудио #3
Идентификатор : 4
Формат : AC-3
Формат/Информация : Audio Coding 3
Коммерческое название : Dolby Digital
Идентификатор кодека : A_AC3
Продолжительность : 1 ч. 55 м.
Вид битрейта : Постоянный
Битрейт : 448 Кбит/сек
Каналы : 6 каналов
ChannelLayout : L R C LFE Ls Rs
Частота : 48,0 КГц
Частота кадров : 31,250 кадров/сек (1536 SPF)
Метод сжатия : С потерями
Размер потока : 369 Мбайт (2%)
Заголовок : DVO c DVD
Язык : Russian
ServiceKind/String : Complete Main
Default : Нет
Forced : Нет

Аудио #4
Идентификатор : 5
Формат : AC-3
Формат/Информация : Audio Coding 3
Коммерческое название : Dolby Digital
Идентификатор кодека : A_AC3
Продолжительность : 1 ч. 55 м.
Вид битрейта : Постоянный
Битрейт : 384 Кбит/сек
Каналы : 6 каналов
ChannelLayout : L R C LFE Ls Rs
Частота : 48,0 КГц
Частота кадров : 31,250 кадров/сек (1536 SPF)
Метод сжатия : С потерями
Размер потока : 316 Мбайт (2%)
Заголовок : Леонид Володарский
Язык : Russian
ServiceKind/String : Complete Main
Default : Нет
Forced : Нет

Аудио #5
Идентификатор : 6
Формат : AC-3
Формат/Информация : Audio Coding 3
Коммерческое название : Dolby Digital
Идентификатор кодека : A_AC3
Продолжительность : 1 ч. 55 м.
Вид битрейта : Постоянный
Битрейт : 192 Кбит/сек
Каналы : 2 канала
ChannelLayout : L R
Частота : 48,0 КГц
Частота кадров : 31,250 кадров/сек (1536 SPF)
Метод сжатия : С потерями
Размер потока : 158 Мбайт (1%)
Заголовок : Антон Карповский
Язык : Russian
ServiceKind/String : Complete Main
Default : Нет
Forced : Нет

Аудио #6
Идентификатор : 7
Формат : DTS
Формат/Информация : Digital Theater Systems
Идентификатор кодека : A_DTS
Продолжительность : 1 ч. 55 м.
Вид битрейта : Постоянный
Битрейт : 1509 Кбит/сек
Каналы : 6 каналов
ChannelLayout : C L R Ls Rs LFE
Частота : 48,0 КГц
Частота кадров : 93,750 кадра/сек (512 SPF)
Битовая глубина : 24 бит
Метод сжатия : С потерями
Размер потока : 1,21 Гбайт (7%)
Заголовок : Владимир Королёв
Язык : Russian
Default : Нет
Forced : Нет

Аудио #7
Идентификатор : 8
Формат : AC-3
Формат/Информация : Audio Coding 3
Коммерческое название : Dolby Digital
Идентификатор кодека : A_AC3
Продолжительность : 1 ч. 55 м.
Вид битрейта : Постоянный
Битрейт : 192 Кбит/сек
Каналы : 2 канала
ChannelLayout : L R
Частота : 48,0 КГц
Частота кадров : 31,250 кадров/сек (1536 SPF)
Метод сжатия : С потерями
Размер потока : 158 Мбайт (1%)
Заголовок : VO
Язык : Russian
ServiceKind/String : Complete Main
Default : Нет
Forced : Нет

Аудио #8
Идентификатор : 9
Формат : DTS
Формат/Информация : Digital Theater Systems
Идентификатор кодека : A_DTS
Продолжительность : 1 ч. 55 м.
Вид битрейта : Постоянный
Битрейт : 1509 Кбит/сек
Каналы : 6 каналов
ChannelLayout : C L R Ls Rs LFE
Частота : 48,0 КГц
Частота кадров : 93,750 кадра/сек (512 SPF)
Битовая глубина : 24 бит
Метод сжатия : С потерями
Размер потока : 1,21 Гбайт (7%)
Заголовок : original
Язык : English
Default : Нет
Forced : Нет

Текст #1
Идентификатор : 10
Формат : UTF-8
Идентификатор кодека : S_TEXT/UTF8
Идентификатор кодека/Информация : UTF-8 Plain Text
Продолжительность : 1 ч. 48 м.
Битрейт : 87 бит/сек
ElementCount : 1322
Размер потока : 69,3 Кбайт (0%)
Заголовок : русские
Язык : Russian
Default : Нет
Forced : Нет

Текст #2
Идентификатор : 11
Формат : UTF-8
Идентификатор кодека : S_TEXT/UTF8
Идентификатор кодека/Информация : UTF-8 Plain Text
Продолжительность : 1 ч. 47 м.
Битрейт : 52 бит/сек
ElementCount : 1053
Размер потока : 41,6 Кбайт (0%)
Заголовок : английские
Язык : English
Default : Нет
Forced : Нет

Меню
00:00:00.000 : en:00:00:00.000
00:04:09.040 : en:00:04:09.040
00:07:42.212 : en:00:07:42.212
00:09:34.115 : en:00:09:34.115
00:12:13.775 : en:00:12:13.775
00:13:51.247 : en:00:13:51.247
00:16:03.379 : en:00:16:03.379
00:18:57.636 : en:00:18:57.636
00:21:13.772 : en:00:21:13.772
00:25:38.328 : en:00:25:38.328
00:29:09.289 : en:00:29:09.289
00:35:08.273 : en:00:35:08.273
00:37:00.218 : en:00:37:00.218
00:38:57.126 : en:00:38:57.126
00:40:18.875 : en:00:40:18.875
00:41:42.041 : en:00:41:42.041
00:42:57.658 : en:00:42:57.658
00:47:54.205 : en:00:47:54.205
00:51:12.194 : en:00:51:12.194
00:55:27.908 : en:00:55:27.908
00:57:53.929 : en:00:57:53.929
01:01:33.440 : en:01:01:33.440
01:05:05.360 : en:01:05:05.360
01:09:16.069 : en:01:09:16.069
01:10:13.376 : en:01:10:13.376
01:12:00.316 : en:01:12:00.316
01:17:10.918 : en:01:17:10.918
01:19:04.406 : en:01:19:04.406
01:22:04.169 : en:01:22:04.169
01:24:27.020 : en:01:24:27.020
01:27:13.728 : en:01:27:13.728
01:32:13.695 : en:01:32:13.695
01:35:37.482 : en:01:35:37.482
01:40:06.417 : en:01:40:06.417
01:47:16.472 : en:01:47:16.472
01:50:23.700 : en:01:50:23.700
piratbit.org



Скачать Особо тяжкие преступления через торрент https://a.radikal.ru/a29/2002/05/4c42738e9f72.jpg Скачать фильм Особо тяжкие преступления через торрент бесплантно в хорошем качестве О фильме: Успешный адвокат Клэр Кубик живёт со своим мужем Томом. После неудавшейся попытки грабежа их дома к ним обращается ФБР и ... 10 10 1
Торрент: Зарегистрирован [2020-02-27 06:19] · скачан: 22 раз
Статус: √ проверено
Размер: 16.99 GB
Как cкачать? Как скачать Особо тяжкие преступления через торрент | qTorrent

% Раздел Тема Автор DL S | L
Фильмы [HD 720p, 1080p] (Хороший звук DUB, MVO) [ 6.75 GB ] Особо тяжкие преступления / High Crimes [2002 BDRip 720p by msltel] DUB MVO DVO 3 x AVO VO msltel Скачать
2 | 0
Фильмы 2001-2005 [ 4.49 GB ] Особо тяжкие преступления / High Crimes [2002 BDRip-AVC by msltel] DUB MVO DVO 3 x AVO VO msltel Скачать
2 | 0

28-11-2019 20:33  

Отключить всю рекламу на сайте

    Дорогой пользователь! Огромная просьба, поблагодарите релизера, оцените раздачу и оставьте свои комментарий, если Вы скачали Особо тяжкие преступления через торрент бесплатно! Внесите свою лепту в развитие PiratBit!
    Комментировать посты могут только пользователи прошедшие не сложную регистрацию
    Показать сообщения:    

    Особо тяжкие преступления через торрент
    Скачать бесплатно Особо тяжкие преступления
    Особо тяжкие преступления скачать торрент
    Особо тяжкие преступления смотреть онлайн
    Cкачать фильм Особо тяжкие преступления бесплатно
    Особо тяжкие преступления скачать торрент в хорошем качестве
    Особо тяжкие преступления смотреть онлайн бесплатно в хорошем качестве


    Вы не можете начинать темы
    Вы не можете отвечать на сообщения
    Вы не можете редактировать свои сообщения
    Вы не можете удалять свои сообщения
    Вы не можете голосовать в опросах
    Вы не можете прикреплять файлы к сообщениям
    Вы можете скачивать файлы