2 сезон

iTunes

WEBRip

1

2 сезон

iTunes

1 сезон

1 сезон

RePack

30

Новинка

ВАЖНО

ИГРА 18+

pack

RePack

MK11
pack

Легкие деньги

RePack

jed

RePack

fifa19

RePack

RDR2

RePack

NEED FOR SPEED™ PAYBACK

4 сезон

9 сезон

Бесстыжие 9 сезон

Все сериалы

все сериалы на PB.wtf

RePack

FAR CRY 5

Anonymous, доброй ночи, мы не успеваем собрать деньги на оплату серверов за февраль, помогите нам пожалуйста в это трудное время. В качестве благодарности мы отключим Вам всю рекламу на сайте (укажите свой ник в строку Ваше имя)!

×
  
Magnet ссылка

Чёрный ворон / Чорний ворон (Тарас Ткаченко) [2019, драма, военный, история, WEB-DL 1080p] [UKR] piratbit.org

Чёрный ворон через торрент piratbit.org

Размер: 3.17 GB | Добавлен: 1 год назад | Торрент скачан:73 раза
Скачать  

27-02-2020 11:35 Чёрный ворон Скачать торрент  

Чёрный ворон / Чорний ворон Информация о фильме

Год выхода: 2019
Страна: Украина
Жанр: драма, военный, история
Продолжительность: 01:50:15
Перевод: Оригинал

Режиссер: Тарас Ткаченко

В ролях: Тарас Цимбалюк, Ксения Данилова, Андрей Мостренко, Павел Москаль, Наталья Сумская, Зоряна Марченко, Азиз Абдурашидов, Алина Коваленко, Алексей Тритенко, Сергей Бабкин

О фильме: «Черный ворон» покажет борьбу украинских повстанцев против советской власти в 1920-х годах. Главный герой по прозвищу Черный ворон - холодноярский атаман - организует борьбу против большевиков-оккупантов, которые уже захватили Украину и вводят в ней свой советский строй, убивая патриотов и ущемляя украинскую культуру.

rating

Файл

Качество: WEB-DL 1080p
Кодек: x.264
Видео: AVC, 1920x800 (2.40:1), 25.000 fps, 3 922 kb/s
Аудио: AC-3, 48.0 kHz, 2 ch, 192 kb/s
Субтитры: Украинские (Вшитые/форс.)
General

Unique ID : 136045059534681040903727681180708425207 (0x6659534D0BC694E33267D237E198CDF7)

Complete name : Чорний ворон (2019) WEB-DL 1080p [UKR] [Hurtom].mkv

Format : Matroska

Format version : Version 4

File size : 3.17 GiB

Duration : 1 h 50 min

Overall bit rate : 4 117 kb/s

Movie name : Чорний ворон (2019)

Encoded date : UTC 2020-02-22 17:38:37

Writing application : mkvmerge v40.0.0 ('Old Town Road + Pony') 64-bit

Writing library : libebml v1.3.9 + libmatroska v1.5.2

Cover : Yes

Attachments : cover.jpg

Video

ID : 1

Format : AVC

Format/Info : Advanced Video Codec

Format profile : High@L4

Format settings : CABAC / 3 Ref Frames

Format settings, CABAC : Yes

Format settings, ReFrames : 3 frames

Codec ID : V_MPEG4/ISO/AVC

Duration : 1 h 50 min

Bit rate : 3 922 kb/s

Width : 1 920 pixels

Height : 800 pixels

Display aspect ratio : 2.40:1

Frame rate mode : Constant

Frame rate : 25.000 FPS

Color space : YUV

Chroma subsampling : 4:2:0

Bit depth : 8 bits

Scan type : Progressive

Bits/(Pixel*Frame) : 0.102

Stream size : 3.02 GiB (95%)

Language : Ukrainian

Default : Yes

Forced : No

Audio

ID : 2

Format : AC-3

Format/Info : Audio Coding 3

Commercial name : Dolby Digital

Codec ID : A_AC3

Duration : 1 h 50 min

Bit rate mode : Constant

Bit rate : 192 kb/s

Channel(s) : 2 channels

Channel layout : L R

Sampling rate : 48.0 kHz

Frame rate : 31.250 FPS (1536 SPF)

Bit depth : 16 bits

Compression mode : Lossy

Stream size : 151 MiB (5%)

Title : AC3 2.0 @ 192 kbps

Language : Ukrainian

Service kind : Complete Main

Default : Yes

Forced : Yes
скриншот   скриншот   скриншот  
piratbit.org



Скачать Чёрный ворон через торрент https://i1.imageban.ru/out/2020/02/22/804992ae41f2647a60a2507f908a4d2a.jpg Скачать фильм Чёрный ворон через торрент бесплантно в хорошем качестве О фильме: «Черный ворон» покажет борьбу украинских повстанцев против советской власти в 1920-х годах. Главный герой по прозвищу Черный ... 6.2 10 6
Торрент: Зарегистрирован [2020-02-27 11:35] · скачан: 73 раз
Статус: √ проверено
Размер: 3.17 GB
Как cкачать? Как скачать Чёрный ворон через торрент | UTorrent

28-11-2019 20:33  

Отключить всю рекламу на сайте

    Дорогой пользователь! Огромная просьба, поблагодарите релизера, оцените раздачу и оставьте свои комментарий, если Вы скачали Чёрный ворон через торрент бесплатно! Внесите свою лепту в развитие PiratBit!
    Комментировать посты могут только пользователи прошедшие не сложную регистрацию
    Показать сообщения:    

    Чёрный ворон через торрент
    Скачать бесплатно Чёрный ворон
    Чёрный ворон скачать торрент
    Чёрный ворон смотреть онлайн
    Cкачать фильм Чёрный ворон бесплатно
    Чёрный ворон скачать торрент в хорошем качестве
    Чёрный ворон смотреть онлайн бесплатно в хорошем качестве


    Вы не можете начинать темы
    Вы не можете отвечать на сообщения
    Вы не можете редактировать свои сообщения
    Вы не можете удалять свои сообщения
    Вы не можете голосовать в опросах
    Вы не можете прикреплять файлы к сообщениям
    Вы можете скачивать файлы