Ссылка на приватное зеркало всего за 1$. Внимание количество ограничено!!!

iTunes

iTunes

iTunes

1

iTunes

iTunes

iTunes

iTunes

iTunes

30
pack

$ от Little Big

ВАЖНО

!!Акция!!

Alien_RageХит недели

RePack

Resident Evil 21

ИГРА 18+

pack

RePack

jed

!!Акция!!

Alien_Rage

RePack

fifa19

RePack

Assassins Creed: Odyssey

RePack

NEED FOR SPEED™ PAYBACK

4 сезон

9 сезон

Бесстыжие 9 сезон

Все сериалы

все сериалы на PB.wtf

RePack

FAR CRY 5
  

Рождество на двоих / Last Christmas (Пол Фиг) [2019, драма, мелодрама, комедия, BDRip 720p] DUB [Лицензия] piratbit.org

Рождество на двоих через торрент piratbit.org

Размер: 7.01 GB | Добавлен: 3 мес. 9 д. назад | Торрент скачан:41 раз
Скачать  

27-02-2020 16:14 Рождество на двоих Скачать торрент  

Рождество на двоих | Last Christmas
Год выпуска: 2019
Страна: Великобритания, США
Студия: Calamity Films, Feigco Entertainment, Perfect World Pictures
Жанр: драма, мелодрама, комедия
Продолжительность: 01:42:49
Перевод: Дублированный | Лицензия
Субтитры: Русские (Forced, full), английские

Режиссер: Пол Фиг

rating

В ролях: Мэдисон Инголдсби, Эмма Томпсон, Борис Исакович, Люси Миллер, Эмилия Кларк, Макс Болдри, Маргарет Клуни, Джон-Люк Робертс, Мишель Йео, Билал Зафар, Генри Голдинг, Ребекка Рут, Лидия Леонард, Патти ЛюПон

Описание: Кейт работает в магазине рождественских товаров, злоупотребляет выпивкой и давно бросила переживать из-за собственной жизни. Но всё меняется после знакомства с милым и очаровательным Томом.

Качество: BDRip 720p
Формат: MKV

Видео: MPEG-4 AVC, 1280x640, 7000 Kbit/s, 23.976 fps
Аудио #01: 48 kHz, AC3, 5.1, 768 Kbps | Дублированный | RUS |
Аудио #02: 48 kHz, AC3, 5.1, 448 Kbps | Дублированный | RUS |
Аудио #03: 48 kHz, E-AC3, 7.1, 1533 Kbps | Оригинал | ENG |
скриншот  скриншот  скриншот  скриншот  скриншот  

General
Unique ID : 202282825765897719923414327478614638778 (0x982E4150B5A8A53F2F898B4CF96E40BA)
Complete name : E:Video111Last.Christmas.2019.Lic.BDRip.720p.seleZen.mkv
Format : Matroska
Format version : Version 4
File size : 7.01 GiB
Duration : 1 h 42 min
Overall bit rate : 9 755 kb/s
Movie name : Last Christmas 2019 from селезень
Encoded date : UTC 2020-03-24 07:57:49
Writing application : mkvmerge v40.0.0 ('Old Town Road + Pony') 64-bit
Writing library : libebml v1.3.9 + libmatroska v1.5.2

Video
ID : 1
Format : AVC
Format/Info : Advanced Video Codec
Format profile : High@L4.1
Format settings : CABAC / 10 Ref Frames
Format settings, CABAC : Yes
Format settings, Reference : 10 frames
Codec ID : V_MPEG4/ISO/AVC
Duration : 1 h 42 min
Bit rate : 7 000 kb/s
Width : 1 280 pixels
Height : 640 pixels
Display aspect ratio : 2.000
Frame rate mode : Constant
Frame rate : 23.976 (24000/1001) FPS
Color space : YUV
Chroma subsampling : 4:2:0
Bit depth : 8 bits
Scan type : Progressive
Bits/(Pixel*Frame) : 0.356
Stream size : 5.03 GiB (72%)
Title : LoRD
Writing library : x264 core 159 r2991+49 ~ LoRD
Encoding settings : cabac=1 / ref=10 / deblock=1:-3:-3 / analyse=0x3:0x133 / me=umh / subme=10 / psy=1 / fade_compensate=0.00 / psy_rd=1.00:0.00 / mixed_ref=1 / me_range=32 / chroma_me=1 / trellis=2 / 8x8dct=1 / cqm=0 / deadzone=21,11 / fast_pskip=0 / chroma_qp_offset=-2 / threads=12 / lookahead_threads=2 / sliced_threads=0 / nr=0 / decimate=0 / interlaced=0 / bluray_compat=0 / constrained_intra=0 / fgo=0 / bframes=8 / b_pyramid=2 / b_adapt=2 / b_bias=0 / direct=3 / weightb=1 / open_gop=0 / weightp=2 / keyint=250 / keyint_min=23 / scenecut=40 / intra_refresh=0 / rc_lookahead=60 / rc=2pass / mbtree=0 / bitrate=7000 / ratetol=1.0 / qcomp=0.60 / qpmin=0:0:0 / qpmax=69:69:69 / qpstep=4 / cplxblur=20.0 / qblur=0.5 / vbv_maxrate=50000 / vbv_bufsize=62500 / nal_hrd=none / filler=0 / ip_ratio=1.25 / pb_ratio=1.25 / aq=3:0.80 / aq-sensitivity=10.00 / aq-factor=1.00:1.00:1.00 / aq2=0 / aq3=0
Language : English
Default : Yes
Forced : No

Audio #1
ID : 2
Format : DTS
Format/Info : Digital Theater Systems
Codec ID : A_DTS
Duration : 1 h 42 min
Bit rate mode : Constant
Bit rate : 768 kb/s
Channel(s) : 6 channels
Channel layout : C L R Ls Rs LFE
Sampling rate : 48.0 kHz
Frame rate : 93.750 FPS (512 SPF)
Bit depth : 24 bits
Compression mode : Lossy
Stream size : 565 MiB (8%)
Title : Dub [License]
Language : Russian
Default : Yes
Forced : Yes

Audio #2
ID : 3
Format : AC-3
Format/Info : Audio Coding 3
Commercial name : Dolby Digital
Codec ID : A_AC3
Duration : 1 h 42 min
Bit rate mode : Constant
Bit rate : 448 kb/s
Channel(s) : 6 channels
Channel layout : L R C LFE Ls Rs
Sampling rate : 48.0 kHz
Frame rate : 31.250 FPS (1536 SPF)
Compression mode : Lossy
Stream size : 329 MiB (5%)
Title : Dub [License]
Language : Russian
Service kind : Complete Main
Default : No
Forced : No

Audio #3
ID : 4
Format : E-AC-3
Format/Info : Enhanced AC-3
Commercial name : Dolby Digital Plus
Codec ID : A_EAC3
Duration : 1 h 42 min
Bit rate mode : Constant
Bit rate : 1 533 kb/s
Channel(s) : 8 channels
Channel layout : L R C LFE Ls Rs Lb Rb
Sampling rate : 48.0 kHz
Frame rate : 187.500 FPS (256 SPF)
Compression mode : Lossy
Stream size : 1.10 GiB (16%)
Title : Original
Language : English
Service kind : Complete Main
Default : No
Forced : No

Text #1
ID : 5
Format : UTF-8
Codec ID : S_TEXT/UTF8
Codec ID/Info : UTF-8 Plain Text
Duration : 1 h 41 min
Bit rate : 2 b/s
Count of elements : 40
Stream size : 1.77 KiB (0%)
Title : Forced
Language : Russian
Default : Yes
Forced : Yes

Text #2
ID : 6
Format : UTF-8
Codec ID : S_TEXT/UTF8
Codec ID/Info : UTF-8 Plain Text
Duration : 1 h 41 min
Bit rate : 100 b/s
Count of elements : 1445
Stream size : 74.8 KiB (0%)
Title : Full
Language : Russian
Default : No
Forced : No

Text #3
ID : 7
Format : UTF-8
Codec ID : S_TEXT/UTF8
Codec ID/Info : UTF-8 Plain Text
Duration : 1 h 41 min
Bit rate : 80 b/s
Count of elements : 1672
Stream size : 60.0 KiB (0%)
Title : Full
Language : English
Default : No
Forced : No

Text #4
ID : 8
Format : UTF-8
Codec ID : S_TEXT/UTF8
Codec ID/Info : UTF-8 Plain Text
Duration : 1 h 42 min
Bit rate : 84 b/s
Count of elements : 1792
Stream size : 63.6 KiB (0%)
Title : SDH
Language : English
Default : No
Forced : No

Menu #1
00:00:00.000 : :Chapter 01
00:05:48.390 : :Chapter 02
00:10:26.960 : :Chapter 03
00:16:47.340 : :Chapter 04
00:23:20.941 : :Chapter 05
00:26:15.657 : :Chapter 06
00:29:39.236 : :Chapter 07
00:36:00.367 : :Chapter 08
00:40:51.991 : :Chapter 09
00:45:31.312 : :Chapter 10
00:49:55.618 : :Chapter 11
00:52:26.769 : :Chapter 12
00:58:10.821 : :Chapter 13
01:05:48.444 : :Chapter 14
01:10:31.185 : :Chapter 15
01:13:50.593 : :Chapter 16
01:19:31.225 : :Chapter 17
01:24:23.600 : :Chapter 18
01:30:42.812 : :Chapter 19
01:37:41.731 : :Chapter 20

Menu #2
00:00:00.097 : en:Chapter 01 / en:Chapter 01

piratbit.org



Скачать Рождество на двоих через торрент https://i111.fastpic.ru/big/2020/0129/02/e158184380f6726c06494c2c7db7cb02.jpg Скачать фильм Рождество на двоих через торрент бесплантно в хорошем качестве Описание: Кейт работает в магазине рождественских товаров, злоупотребляет выпивкой и давно бросила переживать из-за собственной жизни. Но ... 10 10 4
Торрент: Зарегистрирован [2020-03-24 19:57] · скачан: 41 раз
Статус: √ проверено
Размер: 7.01 GB
Как cкачать? Как скачать Рождество на двоих через торрент | qTorrent

% Раздел Тема Автор DL S | L
Фильмы [HD 720p, 1080p] (Хороший звук DUB, MVO) [ 4.96 GB ] Рождество на двоих / Last Christmas [2019 BDRip-HEVC 1080p ] DUB [] bober100 Скачать
1 | 0
Фильмы 2019-2020 [DVDrip, WEB-DLRip, HDrip] (DUB, MVO) [ 1.46 GB ] Рождество на двоих / Last Christmas [2019 BDRip] - [] Twi7ter Скачать
16 | 2
Фильмы (Blu-ray, BD-Remux, HDDVD) [ 41.87 GB ] Рождество на двоих / Last Christmas [2019 Blu-ray EUR 1080p] DUB [] bober100 Скачать
1 | 0
Фильмы 2019-2020 [DVDrip, WEB-DLRip, HDrip] (DUB, MVO) [ 2.18 GB ] Рождество на двоих / Last Christmas [2019 BDRip-AVC] DUB [ BD EUR] bober100 Скачать
2 | 0
Фильмы 2019-2020 [DVDrip, WEB-DLRip, HDrip] (DUB, MVO) [ 746 MB ] Рождество на двоих / Last Christmas [2019 BDRip] DUB [ BD EUR] bober100 Скачать
1 | 0
Фильмы (Blu-ray, BD-Remux, HDDVD) [ 23.44 GB ] Рождество на двоих / Last Christmas [2019 BD Remux 1080p] DUB [] bober100 Скачать
1 | 0
Фильмы 2019-2020 [DVDrip, WEB-DLRip, HDrip] (DUB, MVO) [ 1.46 GB ] Рождество на двоих / Last Christmas [2019 BDRip] DUB [ BD EUR] bober100 Скачать
2 | 0

28-11-2019 20:33  

Отключить всю рекламу на сайте

    Дорогой пользователь! Огромная просьба, поблагодарите релизера, оцените раздачу и оставьте свои комментарий, если Вы скачали Рождество на двоих через торрент бесплатно! Внесите свою лепту в развитие PiratBit!
    Комментировать посты могут только пользователи прошедшие не сложную регистрацию
    Показать сообщения:    

    Рождество на двоих через торрент
    Скачать бесплатно Рождество на двоих
    Рождество на двоих скачать торрент
    Рождество на двоих смотреть онлайн
    Cкачать фильм Рождество на двоих бесплатно
    Рождество на двоих скачать торрент в хорошем качестве
    Рождество на двоих смотреть онлайн бесплатно в хорошем качестве


    Вы не можете начинать темы
    Вы не можете отвечать на сообщения
    Вы не можете редактировать свои сообщения
    Вы не можете удалять свои сообщения
    Вы не можете голосовать в опросах
    Вы не можете прикреплять файлы к сообщениям
    Вы можете скачивать файлы