Достать ножи: Стеклянная луковица

MVO

Добыча

Дубляж

Уэнсдэй

1 сезон

Тор

Дубляж

13 клиническая

1 сезон

Жестокая ночь

MVO

Одни из нас

1 сезон

Deluxe

pack

Рекомендуем

30

Пиратка

ВАЖНО

ВАЖНО

Ghostwire

Пиратка

jed

RePack

nioh2

RePack

RDR2

RePack

NEED FOR SPEED™ PAYBACK

RePack

скачать торрент

Кинопоиск HD

Острые козырьки 6 сезон

6 сезон

FAR CRY 6

RePack

скачать торрент

Лицензия

скачать торрент

MVO

1

1 сезон

скачать торрент

1 сезон

скачать торрент

Лицензия

  

Красавица и чудовище / Beauty and the Beast (Билл Кондон) [2017, Мюзикл, фэнтези, мелодрама, семейный, UHD BDRemux 2160p] Дубляж [Лицензия]

Красавица и чудовище через торрент piratbit.org

Размер: 49.85 GB | Добавлен: 2 года 11 мес. назад | Торрент скачан:54 раза
Смотреть онлайн | Скачать | Поддержите нас   

28-02-2020 21:10 Красавица и чудовище Скачать торрент  

Красавица и чудовище | Beauty and the Beast««Вы наш гость»»
Год выпуска: 2017
Страна: США
Студия: Mandeville Films, Walt Disney Pictures
Жанр: Мюзикл, фэнтези, мелодрама, семейный
Продолжительность: 02:09:16
Перевод: Дублированный | Лицензия
Субтитры: Русские (Full), английские

Режиссер: Билл Кондон

rating

В ролях:

Эмма Уотсон (Belle), Дэн Стивенс (Beast), Люк Эванс (Gaston), Джош Гад (LeFou), Кевин Клайн (Maurice), Хэтти Морахэн (Agathe / Enchantress), Хейдн Гвин (Clothilde), Джерард Хоран (Jean the Potter), Рэй Фиарон (Père Robert), Юэн МакГрегор (Lumière), Иэн МакКеллен (Cogsworth), Эмма Томпсон (Mrs. Potts)
Описание: Старая-старая сказка, горячо любимая своими зрителями, вновь возвращается на экраны ожившей легендой в виде ремейка анимационного диснеевского фильма по мотивам сказки Жанны-Мари Лепренс де Бомон. Хорошо известный всем сюжет о юной добросердечной девушке Белль, полюбившей заколдованного принца в обличии чудовища за красоту его души оформлен в виде яркого, красивого, насыщенного музыкальными номерами костюмированного фильма. Добавьте сюда отнюдь не бюджетный голливудский размах, спецэффекты компьютерной графики и ожидаемые рекордные сборы, а также Эмму Уотсон в главной роли и решитесь на просмотр - хотя бы для того, чтобы сравнить предлагаемый продукт с оригиналом.

Качество: UHD BDRemux 2160p
Формат: MKV

Видео: 3840x2160 at 23.976 fps, MPEG-H HEVC HDR Video, 48900 kbps avg
Аудио #01: 48 kHz, AC3, 5.1, 640 Kbps | Дублированный | RUS |
Аудио #02: 48 kHz, TrueHD, 7.1, 4936 Kbps | Оригинал | ENG |
Аудио #03: 48 kHz, AC3, 5.1, 640 Kbps | Оригинал | ENG |
скриншот  скриншот  скриншот  скриншот  скриншот  

General
Unique ID : 264557202144760435916370716271079936236 (0xC707DD1F776A1AB681106A5935DD50EC)
Complete name : E:Video111Beauty.and.the.Beast.2017.BDREMUX.2160p.HDR.seleZen.mkv
Format : Matroska
Format version : Version 4
File size : 49.9 GiB
Duration : 2 h 9 min
Overall bit rate mode : Variable
Overall bit rate : 55.2 Mb/s
Movie name : Beauty and the Beast 2017 from селезень
Encoded date : UTC 2020-02-28 20:39:25
Writing application : mkvmerge v40.0.0 ('Old Town Road + Pony') 64-bit
Writing library : libebml v1.3.9 + libmatroska v1.5.2

Video
ID : 1
Format : HEVC
Format/Info : High Efficiency Video Coding
Format profile : Main 10@L5.1@High
HDR format : SMPTE ST 2086, HDR10 compatible
Codec ID : V_MPEGH/ISO/HEVC
Duration : 2 h 9 min
Bit rate : 48.9 Mb/s
Width : 3 840 pixels
Height : 2 160 pixels
Display aspect ratio : 16:9
Frame rate mode : Constant
Frame rate : 23.976 (24000/1001) FPS
Color space : YUV
Chroma subsampling : 4:2:0 (Type 2)
Bit depth : 10 bits
Bits/(Pixel*Frame) : 0.246
Stream size : 44.2 GiB (89%)
Writing library : ATEME Titan File 3.9.0 (4.9.0.0)
Language : English
Default : Yes
Forced : No
Color range : Limited
Color primaries : BT.2020
Transfer characteristics : PQ
Matrix coefficients : BT.2020 non-constant
Mastering display color pri : Display P3
Mastering display luminance : min: 0.0050 cd/m2, max: 4000 cd/m2

Audio #1
ID : 2
Format : AC-3
Format/Info : Audio Coding 3
Commercial name : Dolby Digital
Codec ID : A_AC3
Duration : 2 h 9 min
Bit rate mode : Constant
Bit rate : 640 kb/s
Channel(s) : 6 channels
Channel layout : L R C LFE Ls Rs
Sampling rate : 48.0 kHz
Frame rate : 31.250 FPS (1536 SPF)
Compression mode : Lossy
Stream size : 592 MiB (1%)
Title : Дубляж [License]
Language : Russian
Service kind : Complete Main
Default : Yes
Forced : Yes

Audio #2
ID : 3
Format : MLP FBA 16-ch
Format/Info : Meridian Lossless Packing FBA with 16-channel presentation
Commercial name : Dolby TrueHD with Dolby Atmos
Codec ID : A_TRUEHD
Duration : 2 h 9 min
Bit rate mode : Variable
Bit rate : 4 936 kb/s
Maximum bit rate : 8 103 kb/s
Channel(s) : 8 channels
Channel layout : L R C LFE Ls Rs Lb Rb
Sampling rate : 48.0 kHz
Frame rate : 1 200.000 FPS (40 SPF)
Compression mode : Lossless
Stream size : 4.46 GiB (9%)
Title : Original
Language : English
Default : No
Forced : No
Number of dynamic objects : 13
Bed channel count : 1 channel
Bed channel configuration : LFE

Audio #3
ID : 4
Format : AC-3
Format/Info : Audio Coding 3
Commercial name : Dolby Digital
Codec ID : A_AC3
Duration : 2 h 9 min
Bit rate mode : Constant
Bit rate : 640 kb/s
Channel(s) : 6 channels
Channel layout : L R C LFE Ls Rs
Sampling rate : 48.0 kHz
Frame rate : 31.250 FPS (1536 SPF)
Compression mode : Lossy
Stream size : 592 MiB (1%)
Language : English
Service kind : Complete Main
Default : No
Forced : No

Text #1
ID : 5
Format : UTF-8
Codec ID : S_TEXT/UTF8
Codec ID/Info : UTF-8 Plain Text
Duration : 2 h 1 min
Bit rate : 77 b/s
Count of elements : 1596
Stream size : 69.4 KiB (0%)
Title : Full
Language : Russian
Default : No
Forced : No

Text #2
ID : 6
Format : UTF-8
Codec ID : S_TEXT/UTF8
Codec ID/Info : UTF-8 Plain Text
Duration : 2 h 8 min
Bit rate : 47 b/s
Count of elements : 1776
Stream size : 44.5 KiB (0%)
Title : Full
Language : English
Default : No
Forced : No

Text #3
ID : 7
Format : UTF-8
Codec ID : S_TEXT/UTF8
Codec ID/Info : UTF-8 Plain Text
Duration : 2 h 8 min
Bit rate : 48 b/s
Count of elements : 1778
Stream size : 45.0 KiB (0%)
Title : SDH
Language : English
Default : No
Forced : No

Menu
00:00:00.000 : en:Глава 01
00:04:36.151 : en:Глава 02
00:08:06.403 : en:Глава 03
00:11:18.136 : en:Глава 04
00:15:21.420 : en:Глава 05
00:18:57.261 : en:Глава 06
00:25:05.796 : en:Глава 07
00:31:41.441 : en:Глава 08
00:36:08.583 : en:Глава 09
00:42:32.133 : en:Глава 10
00:47:01.193 : en:Глава 11
00:54:44.865 : en:Глава 12
01:00:43.431 : en:Глава 13
01:07:40.807 : en:Глава 14
01:14:38.099 : en:Глава 15
01:19:43.570 : en:Глава 16
01:22:02.626 : en:Глава 17
01:28:53.245 : en:Глава 18
01:34:01.177 : en:Глава 19
01:38:10.051 : en:Глава 20
01:45:23.567 : en:Глава 21
01:49:13.839 : en:Глава 22
01:55:54.072 : en:Глава 23
01:58:49.372 : en:Глава 24




Скачать Красавица и чудовище через торрент https://img10.lostpic.net/2020/02/28/951ca449049be925150042bd70567c2e.jpg Скачать, смотреть онлайн Красавица и чудовище бесплантно в хорошем качестве Описание: Старая-старая сказка, горячо любимая своими зрителями, вновь возвращается на экраны ожившей легендой в виде ремейка анимационного ... 10 10 5
Торрент: Зарегистрирован [2020-02-28 21:10] · скачан: 54 раз
Статус: √ проверено
Размер: 49.85 GB
Как cкачать? Как скачать Красавица и чудовище через торрент | UTorrent

% Раздел Тема Автор DL S | L
T Релизы по Парсеру [Игры, Сериалы и Фильмы и другое...] [ 44.35 GB ] Красавица и чудовище 3D / Beauty and the Beast 3D | Лицензия | 1080p bober100 Скачать
1 | 0
Фильмы [HD 720p, 1080p] (Хороший звук DUB, MVO) [ 6.37 GB ] Красавица и чудовище / Beauty and the Beast | DUB + AVO | 720p от potroks potroks Скачать
1 | 0
Фильмы без перевода [ 26.4 GB ] Красавица и чудовище / Beauty and the Beast | | BD Remux smaster Скачать
1 | 0
3D Фильмы [ 12.78 GB ] Красавица и чудовище в 3Д / Beauty and the Beast 3D | DUB | 1080p serega768 Скачать
1 | 0
Фильмы (Blu-ray, BD-Remux, HDDVD) [ 28.81 GB ] Красавица и чудовище / Beauty and the Beast | Лицензия | BD Remux 1080p bober100 Скачать
1 | 0
Фильмы 2017 [DVDrip, WEB-DLRip, HDrip] (DUB, MVO) [ 2.18 GB ] Красавица и чудовище / Beauty and the Beast | Лицензия | BDRip Twi7ter Скачать
1 | 0
Фильмы 2017 [DVDrip, WEB-DLRip, HDrip] (DUB, MVO) [ 1.46 GB ] Красавица и чудовище / Beauty and the Beast | Лицензия | BDRip Twi7ter Скачать
1 | 0

28-11-2019 20:33  


Отключить вcю реклaмy на сайте, в т.ч. и в плеере онлайн просмотра!

    Дорогой пользователь! Огромная просьба, поблагодарите релизера, оцените раздачу и оставьте свои комментарий, если Вы скачали Красавица и чудовище через торрент бесплатно!!
    Комментировать посты могут только пользователи прошедшие не сложную регистрацию
    Показать сообщения:    


    Красавица и чудовище через торрент
    Скачать бесплатно Красавица и чудовище
    Красавица и чудовище скачать торрент
    Красавица и чудовище смотреть онлайн
    Cкачать фильм Красавица и чудовище бесплатно
    Красавица и чудовище скачать торрент в хорошем качестве
    Красавица и чудовище смотреть онлайн бесплатно в хорошем качестве
    Вы не можете начинать темы
    Вы не можете отвечать на сообщения
    Вы не можете редактировать свои сообщения
    Вы не можете удалять свои сообщения
    Вы не можете голосовать в опросах
    Вы не можете прикреплять файлы к сообщениям
    Вы можете скачивать файлы
    Красавица и чудовище / Beauty and the Beast [2017, Мюзикл, фэнтези, мелодрама, семейный, UHD BDRemux 2160p] Дубляж [Лицензия] смотреть онлайн, скачать торрент picoco.icu