Достать ножи: Стеклянная луковица

MVO

Добыча

Дубляж

Уэнсдэй

1 сезон

Тор

Дубляж

13 клиническая

1 сезон

Жестокая ночь

MVO

Одни из нас

1 сезон

Deluxe

pack

Рекомендуем

30

Пиратка

ВАЖНО

ВАЖНО

Ghostwire

Пиратка

jed

RePack

nioh2

RePack

RDR2

RePack

NEED FOR SPEED™ PAYBACK

RePack

скачать торрент

Кинопоиск HD

Острые козырьки 6 сезон

6 сезон

FAR CRY 6

RePack

скачать торрент

Лицензия

скачать торрент

MVO

1

1 сезон

скачать торрент

1 сезон

скачать торрент

Лицензия

  

Звёздные войны: Скайуокер. Восход / Star Wars: Episode IX - The Rise of Skywalker (Джей Джей Абрамс) [2019, Фантастика, боевик, приключения, UHD BDRemux 2160p] Дубляж [iTunes]

Звёздные войны: Скайуокер. Восход через торрент piratbit.org

Размер: 52.62 GB | Добавлен: 2 года 10 мес. назад | Торрент скачан:359 раз
Смотреть онлайн | Скачать | Поддержите нас   

29-02-2020 06:20 Звёздные войны: Скайуокер. Восход Скачать торрент  

Звёздные войны: Скайуокер. Восход | Star Wars: Episode IX - The Rise of Skywalker
Год выпуска: 2019
Страна: США
Студия: Lucasfilm, Bad Robot, Digital Makeup Group
Жанр: Фантастика, фэнтези, боевик, приключения
Продолжительность: ~ 02:21:53
Перевод: Дублированный | iTunes
Субтитры: Русские (Forced, full, SDH), английские

Режиссер: Джей Джей Абрамс

rating

В ролях: Дэйзи Ридли, Адам Драйвер, Кэрри Фишер, Марк Хэмилл, Джон Бойега, Оскар Айзек, Энтони Дэниелс, Наоми Аки, Донал Глисон, Ричард Э. Грант

Описание: Фильм завершает невероятную историю семьи Скайуокеров, длящуюся уже более сорока лет, и обещает дать ответы на все загадки из предыдущих серий. Зрителя ожидают старые и новые герои, уникальные миры, увлекательные путешествия на край Галактики и грандиозный финал фантастической саги.

Качество: UHD BDRemux 2160p
Формат: MKV

Видео: 3840x2160 at 23.976 fps, MPEG-H HEVC HDR Video, 46100 kbps avg
Аудио #01: 48 kHz, AC3, 5.1, 384 Kbps | iTunes | RUS |
Аудио #02: 48 kHz, TrueHD, 7.1, 5890 Kbps | Оригинал | ENG |
Аудио #03: 48 kHz, AC3, 5.1, 640 Kbps | Оригинал | ENG |
скриншот  скриншот  скриншот  скриншот  скриншот  

General
Unique ID : 158136889729075897304633766458531443293 (0x76F80E9FB02F9763B514619B5FB2F25D)
Complete name : E:Video111Star.Wars.Episode.IX-The.Rise.of.Skywalker.2019.BDREMUX.2160p.HDR.seleZen.mkv
Format : Matroska
Format version : Version 4
File size : 52.6 GiB
Duration : 2 h 21 min
Overall bit rate mode : Variable
Overall bit rate : 53.1 Mb/s
Movie name : Star Wars: Episode IX - The Rise of Skywalker 2019 from селезень
Encoded date : UTC 2020-03-20 13:59:01
Writing application : mkvmerge v40.0.0 ('Old Town Road + Pony') 64-bit
Writing library : libebml v1.3.9 + libmatroska v1.5.2

Video
ID : 1
Format : HEVC
Format/Info : High Efficiency Video Coding
Format profile : Main 10@L5.1@High
HDR format : SMPTE ST 2086, HDR10 compatible
Codec ID : V_MPEGH/ISO/HEVC
Duration : 2 h 21 min
Bit rate : 46.1 Mb/s
Width : 3 840 pixels
Height : 2 160 pixels
Display aspect ratio : 16:9
Frame rate mode : Constant
Frame rate : 23.976 (24000/1001) FPS
Color space : YUV
Chroma subsampling : 4:2:0 (Type 2)
Bit depth : 10 bits
Bits/(Pixel*Frame) : 0.232
Stream size : 45.7 GiB (87%)
Language : English
Default : Yes
Forced : No
Color range : Limited
Color primaries : BT.2020
Transfer characteristics : PQ
Matrix coefficients : BT.2020 non-constant
Mastering display color pri : Display P3
Mastering display luminance : min: 0.0001 cd/m2, max: 1000 cd/m2
Maximum Content Light Level : 724 cd/m2
Maximum Frame-Average Light : 647 cd/m2

Audio #1
ID : 2
Format : AC-3
Format/Info : Audio Coding 3
Commercial name : Dolby Digital
Codec ID : A_AC3
Duration : 2 h 21 min
Bit rate mode : Constant
Bit rate : 384 kb/s
Channel(s) : 6 channels
Channel layout : L R C LFE Ls Rs
Sampling rate : 48.0 kHz
Frame rate : 31.250 FPS (1536 SPF)
Compression mode : Lossy
Stream size : 390 MiB (1%)
Title : iTunes
Language : Russian
Service kind : Complete Main
Default : Yes
Forced : Yes

Audio #2
ID : 3
Format : MLP FBA 16-ch
Format/Info : Meridian Lossless Packing FBA with 16-channel presentation
Commercial name : Dolby TrueHD with Dolby Atmos
Codec ID : A_TRUEHD
Duration : 2 h 21 min
Bit rate mode : Variable
Bit rate : 5 890 kb/s
Maximum bit rate : 7 494 kb/s
Channel(s) : 8 channels
Channel layout : L R C LFE Ls Rs Lb Rb
Sampling rate : 48.0 kHz
Frame rate : 1 200.000 FPS (40 SPF)
Compression mode : Lossless
Stream size : 5.84 GiB (11%)
Title : Original
Language : English
Default : No
Forced : No
Number of dynamic objects : 13
Bed channel count : 1 channel
Bed channel configuration : LFE

Audio #3
ID : 4
Format : AC-3
Format/Info : Audio Coding 3
Commercial name : Dolby Digital
Codec ID : A_AC3
Duration : 2 h 21 min
Bit rate mode : Constant
Bit rate : 640 kb/s
Channel(s) : 6 channels
Channel layout : L R C LFE Ls Rs
Sampling rate : 48.0 kHz
Frame rate : 31.250 FPS (1536 SPF)
Compression mode : Lossy
Stream size : 650 MiB (1%)
Language : English
Service kind : Complete Main
Default : No
Forced : No

Text #1
ID : 5
Format : UTF-8
Codec ID : S_TEXT/UTF8
Codec ID/Info : UTF-8 Plain Text
Duration : 1 h 37 min
Bit rate : 1 b/s
Count of elements : 10
Stream size : 938 Bytes (0%)
Title : Forced
Language : Russian
Default : Yes
Forced : Yes

Text #2
ID : 6
Format : UTF-8
Codec ID : S_TEXT/UTF8
Codec ID/Info : UTF-8 Plain Text
Duration : 2 h 17 min
Bit rate : 57 b/s
Count of elements : 1435
Stream size : 58.1 KiB (0%)
Title : Full
Language : Russian
Default : No
Forced : No

Text #3
ID : 7
Format : UTF-8
Codec ID : S_TEXT/UTF8
Codec ID/Info : UTF-8 Plain Text
Duration : 2 h 11 min
Bit rate : 73 b/s
Count of elements : 1764
Stream size : 71.1 KiB (0%)
Title : SDH
Language : Russian
Default : No
Forced : No

Text #4
ID : 8
Format : UTF-8
Codec ID : S_TEXT/UTF8
Codec ID/Info : UTF-8 Plain Text
Duration : 2 h 11 min
Bit rate : 39 b/s
Count of elements : 1460
Stream size : 37.9 KiB (0%)
Title : Full
Language : English
Default : No
Forced : No

Text #5
ID : 9
Format : UTF-8
Codec ID : S_TEXT/UTF8
Codec ID/Info : UTF-8 Plain Text
Duration : 2 h 11 min
Bit rate : 48 b/s
Count of elements : 1895
Stream size : 47.1 KiB (0%)
Title : SDH
Language : English
Default : No
Forced : No

Menu
00:00:00.000 : en:Opening Logo
00:00:09.176 : en:The Rise Of Skywalker
00:01:40.934 : en:Kylo Ren's Quest
00:03:47.811 : en:Exegol
00:06:42.902 : en:Millenium Falcon Mission
00:08:26.673 : en:Pursuit Of The Falcon
00:10:04.896 : en:Rey's Training Course
00:12:48.142 : en:General Leia
00:13:54.000 : en:The Falcon's Back
00:15:17.416 : en:Spy Message
00:17:13.199 : en:"We Go Together"
00:19:25.039 : en:Ren Reforged
00:21:28.579 : en:Pasaana Festival
00:25:27.693 : en:General Calrissian
00:27:14.883 : en:Speeder Chase
00:30:41.548 : en:Buried Secrets
00:35:49.064 : en:Power Unleashed
00:41:37.745 : en:Aftermath
00:43:15.259 : en:"In This Till The End"
00:45:28.351 : en:Meeting Zorii
00:48:24.568 : en:Babu Firk's Workshop
00:54:37.566 : en:Into The Destroyer
00:58:49.192 : en:Revelations
01:02:54.771 : en:Repercussions
01:06:23.104 : en:To Kef Bir
01:09:54.607 : en:Jannah
01:13:07.383 : en:The Emperor's Vault
01:18:23.616 : en:The Duel
01:23:41.225 : en:Remembrance
01:27:02.884 : en:The Final Order Begins
01:30:23.126 : en:The Destiny Of A Jedi
01:35:00.820 : en:Battle Plans
01:38:47.880 : en:Welcome To Exegol
01:40:35.863 : en:Drop Zone
01:43:03.135 : en:Throne Of The Sith
01:45:27.863 : en:Dark Turn
01:48:48.188 : en:Dyad In The Force
01:53:27.634 : en:The Galaxy Responds
01:55:30.757 : en:Emperor Reborn
01:59:02.969 : en:Last Chance
02:01:37.749 : en:Ben
02:05:20.430 : en:Victory
02:09:42.692 : en:Saga's End
02:12:25.896 : en:End Credits




Скачать Звёздные войны: Скайуокер. Восход через торрент https://img10.lostpic.net/2020/03/20/2a1124c1cbd098f7e0571265f62e7d75.jpg Скачать, смотреть онлайн Звёздные войны: Скайуокер. Восход бесплантно в хорошем качестве Описание: Фильм завершает невероятную историю семьи Скайуокеров, длящуюся уже более сорока лет, и обещает дать ответы на все загадки из ... 9.1 10 18
Info! Золотая раздача, скачанное не засчитывается.
Торрент: Зарегистрирован [2020-03-21 17:34] · скачан: 359 раз
Статус: √ проверено
Размер: 52.62 GB
Как cкачать? Как скачать Звёздные войны: Скайуокер. Восход через торрент | UTorrent

% Раздел Тема Автор DL S | L
Фильмы (WEB-DL 720p, 1080p) [ 5.08 GB ] Звёздные войны: Скайуокер. Восход / Star Wars: Episode IX - The Rise of Skywalker | iTunes | 1080p bober100 Скачать
1 | 0
Ultra HD (UHD: 2K, 4K, 8K) [ 61.77 GB ] Звёздные войны: Скайуокер. Восход / Star Wars: Episode IX - The Rise of Skywalker | iTunes | 2160p sheker187 Скачать
2 | 0
Фильмы [HD 720p, 1080p] (Хороший звук DUB, MVO) [ 5.94 GB ] Звёздные войны: Скайуокер. Восход / Star Wars: Episode IX - The Rise of Skywalker | | 720p MVO morfyi Скачать
1 | 0
Фильмы [HD 720p, 1080p] (Хороший звук DUB, MVO) [ 7.39 GB ] Звёздные войны: Скайуокер. Восход / Star Wars: Episode IX - The Rise of Skywalker | Дубляж Custom | 720p, Дубляж Custom, AVO morfyi Скачать
1 | 0
Фильмы (HD 720p, 1080p) (48-60 fps) [ 4.47 GB ] Звездные войны: Скайуокер. Восход / Star Wars: Episode IX - The Rise of Skywalker | Дубляж | 720p / 60 FPS slaventi-69 Скачать
1 | 0
3D Фильмы [ 15.88 GB ] Звёздные войны: Скайуокер. Восход 3Д / Star Wars: Episode IX - The Rise of Skywalker 3D | iTunes | 1080p, (Anamorph SideBySide bober100 Скачать
1 | 0
3D Фильмы [ 28.57 GB ] Звёздные войны: Скайуокер. Восход в 3Д / Star Wars: Episode IX - The Rise of Skywalker 3D | iTunes | 1080p serega768 Скачать
1 | 0



Последний раз редактировалось: bober100 (2020-03-15 07:31), всего редактировалось 1 раз

28-11-2019 20:33  


Отключить вcю реклaмy на сайте, в т.ч. и в плеере онлайн просмотра!

    Дорогой пользователь! Огромная просьба, поблагодарите релизера, оцените раздачу и оставьте свои комментарий, если Вы скачали Звёздные войны: Скайуокер. Восход через торрент бесплатно!!
    Комментировать посты могут только пользователи прошедшие не сложную регистрацию
    Показать сообщения:    


    Звёздные войны: Скайуокер. Восход через торрент
    Скачать бесплатно Звёздные войны: Скайуокер. Восход
    Звёздные войны: Скайуокер. Восход скачать торрент
    Звёздные войны: Скайуокер. Восход смотреть онлайн
    Cкачать фильм Звёздные войны: Скайуокер. Восход бесплатно
    Звёздные войны: Скайуокер. Восход скачать торрент в хорошем качестве
    Звёздные войны: Скайуокер. Восход смотреть онлайн бесплатно в хорошем качестве
    Вы не можете начинать темы
    Вы не можете отвечать на сообщения
    Вы не можете редактировать свои сообщения
    Вы не можете удалять свои сообщения
    Вы не можете голосовать в опросах
    Вы не можете прикреплять файлы к сообщениям
    Вы можете скачивать файлы
    Звёздные войны: Скайуокер. Восход / Star Wars: Episode IX - The Rise of Skywalker [2019, Фантастика, боевик, приключения, UHD BDRemux 2160p] Дубляж [iTunes] смотреть онлайн, скачать торрент picoco.icu