Ссылка на приватное зеркало всего за 1$. Внимание количество ограничено!!!

iTunes

iTunes

iTunes

1

iTunes

iTunes

iTunes

iTunes

iTunes

30
pack

Новость дня

ВАЖНО

!!Акция!!

Alien_RageХит недели

RePack

Resident Evil 21

ИГРА 18+

pack

RePack

jed

!!Акция!!

Alien_Rage

RePack

fifa19

RePack

Assassins Creed: Odyssey

RePack

NEED FOR SPEED™ PAYBACK

4 сезон

9 сезон

Бесстыжие 9 сезон

Все сериалы

все сериалы на PB.wtf

RePack

FAR CRY 5
  

Супермен: Красный сын / Superman: Red Son (Сэм Лью / Sam Liu) [2020, мультфильм, боевик, фантастика, WEBRip 1080p] [MVO] (HDRezka Studio) piratbit.org

Супермен: Красный сын через торрент piratbit.org

Раздают: 27 [ 473 KB/s ]
Размер: 4.55 GB | Добавлен: 30 д. назад | Торрент скачан:379 раз
Скачать  

03-03-2020 08:27 Супермен: Красный сын Скачать торрент  

Супермен: Красный сын / Superman: Red Son

Год выпуска: 2020
Страна: Ирландия, Канада, Новая Зеландия, США
Жанр: боевик, фантастика
Продолжительность: 01:25:06
Перевод: Профессиональный (многоголосый закадровый) *HDRezka Studio*

субтитры: русские (forced)

Режиссёр: Сэм Лью

Роли озвучивали: Джейсон Айзекс, Эми Акер, Дидрих Бадер, Ванесса Маршалл, Фил Моррис, Пол Уильямс, Грег Чун, Фил ЛаМарр, Джим Мескимен, Саша Ройз

Описание: В послевоенном Советском Союзе у деревенского мальчишки просыпаются невероятные способности, которые его подруга убеждает использовать на благо советского народа. Несколько лет спустя Супермен — символ непобедимости СССР и главный козырь товарища Сталина в гонке вооружений с США. Однажды Супермен спасает Метрополис от падения на него спутника и знакомится с журналисткой Лоис Лейн, которая открывает ему глаза на репрессии в Союзе. Узнав шокирующую правду о принудительном труде, Супермен испепеляет Сталина и сам возглавляет страну. А в это время муж Лоис Лейн, миллионер Лекс Лютор, на основе образцов ДНК со спутника создаёт своего супергероя.

rating

Качество: WEBRip 1080p
Формат: MKV
Видео: AVC, 7116 kbps, 1920x1080 (16:9), 23.976 fps
Аудио: 48.0 KHz, AC3, 6 channel, 448 kbps
General
Unique ID : 284859527646874869490359888688100681894 (0xD64DF30D720C13A0C6491BE6D97428A6)
Complete name : E:\Superman.Red.Son.2020.WEBRip.1080p.rus.5.1.HDREZKA.STUDIO.mkv
Format : Matroska
Format version : Version 4 / Version 2
File size : 4.55 GiB
Duration : 1h 24mn
Overall bit rate mode : Variable
Overall bit rate : 7 718 Kbps
Encoded date : UTC 2020-03-02 22:27:45
Writing application : mkvmerge v28.2.0 ('The Awakening') 64-bit
Writing library : libebml v1.3.6 + libmatroska v1.4.9

Video
ID : 1
Format : AVC
Format/Info : Advanced Video Codec
Format profile : High@L4.1
Format settings, CABAC : Yes
Format settings, ReFrames : 1 frame
Codec ID : V_MPEG4/ISO/AVC
Duration : 1h 24mn
Bit rate mode : Variable
Bit rate : 7 116 Kbps
Maximum bit rate : 2 000 Kbps
Width : 1 920 pixels
Height : 1 080 pixels
Display aspect ratio : 16:9
Frame rate mode : Constant
Frame rate : 23.976 fps
Color space : YUV
Chroma subsampling : 4:2:0
Bit depth : 8 bits
Scan type : Progressive
Bits/(Pixel*Frame) : 0.143
Stream size : 4.20 GiB (92%)
Default : Yes
Forced : No

Audio
ID : 2
Format : AC-3
Format/Info : Audio Coding 3
Mode extension : CM (complete main)
Format settings, Endianness : Big
Codec ID : A_AC3
Duration : 1h 24mn
Bit rate mode : Constant
Bit rate : 448 Kbps
Channel(s) : 6 channels
Channel positions : Front: L C R, Side: L R, LFE
Sampling rate : 48.0 KHz
Compression mode : Lossy
Stream size : 271 MiB (6%)
Language : Russian
Default : Yes
Forced : No
скриншот  скриншот  скриншот  
piratbit.org



Скачать Супермен: Красный сын через торрент https://i111.fastpic.ru/big/2020/0303/f6/65f8a558980da6f40c07df856f47c8f6.png Скачать фильм Супермен: Красный сын через торрент бесплантно в хорошем качестве Описание: В послевоенном Советском Союзе у деревенского мальчишки просыпаются невероятные способности, которые его подруга убеждает ... 9.4 10 18
Торрент: Зарегистрирован [2020-03-03 08:27] · скачан: 379 раз
Статус: √ проверено
Размер: 4.55 GB
Как cкачать? Как скачать Супермен: Красный сын через торрент | qTorrent

28-11-2019 20:33  

Отключить всю рекламу на сайте

03-03-2020 12:40 Супермен: Красный сын Скачать торрент  

Спасибо за скоростьpiratbit.org



03-03-2020 22:31 Супермен: Красный сын Скачать торрент  

Описание просто бред какой то
Сталина на них нетуpiratbit.org
Kkillermax2013 писал(а):

Супермен испепеляет Сталина и сам возглавляет страну.



30-03-2020 20:27 Супермен: Красный сын Скачать торрент  

Чушь полнейшая и пропоганда. Но супермен, как персонаж, получился очень даже человечный, гораздо лучше тех пустышек что в других мультиках и фильмах( Человек из стали тот ещё уныние).piratbit.org



    Дорогой пользователь! Огромная просьба, поблагодарите релизера, оцените раздачу и оставьте свои комментарий, если Вы скачали Супермен: Красный сын через торрент бесплатно! Внесите свою лепту в развитие PiratBit!
    Комментировать посты могут только пользователи прошедшие не сложную регистрацию
    Показать сообщения:    

    Супермен: Красный сын через торрент
    Скачать бесплатно Супермен: Красный сын
    Супермен: Красный сын скачать торрент
    Супермен: Красный сын смотреть онлайн
    Cкачать фильм Супермен: Красный сын бесплатно
    Супермен: Красный сын скачать торрент в хорошем качестве
    Супермен: Красный сын смотреть онлайн бесплатно в хорошем качестве


    Вы не можете начинать темы
    Вы не можете отвечать на сообщения
    Вы не можете редактировать свои сообщения
    Вы не можете удалять свои сообщения
    Вы не можете голосовать в опросах
    Вы не можете прикреплять файлы к сообщениям
    Вы можете скачивать файлы