>

5.6

iTunes

6.1

MVO

5.7

MVO

1

7.4

1 сезон

6.8

iTunes

7.2

1 сезон

13

6.7

1 сезон

8.3

RePack

30

Deluxe

pack

9.9

Лицензия

ВАЖНО

ИГРА 18+

pack

7.3

RePack

MK11

7.7

RePack

jed

7.8

RePack

fifa19

8.5

RePack

RDR2

RePack

NEED FOR SPEED™ PAYBACK

4 сезон

9 сезон

Бесстыжие 9 сезон

Все сериалы

все сериалы на PB.wtf

RePack

FAR CRY 5

Anonymous, добрый вечер, мы катастрофически не успеваем собрать деньги на оплату серверов, помогите нам пожалуйста 5,10,15р., для нас важна любая помощь . В качестве благодарности мы отключим Вам всю рекламу на сайте (укажите свой ник в строку Ваше имя)!

×
  
Magnet ссылка

Дневники вампира / The Vampire Diaries / Сезон: 1-8 / Серии: 1-172 из 172 (Маркос Сига, Крис Грисмер, Дж. Миллер Тобин) [2009-2017, Мистика, триллер, ужасы, фэнтези, WEB-DLRip] MVO [LostFilm] piratbit.org

Дневники вампира через торрент piratbit.org

Качают: 1 [ 0 KB/s ]
Размер: 65.96 GB | Добавлен: 1 год 6 мес. назад | Торрент скачан:51 раз
Смотреть онлайн Дневники вампира | Скачать    Ребята, помогите собрать деньги на оплату серверов!!!

03-03-2020 08:51 Дневники вампира Скачать торрент  

Дневники вампира | The Vampire Diaries Год выпуска: 2009-2017
Страна: США
Жанр: Мистика, триллер, вампиры, ужасы, фэнтези, мелодрама, детектив
Продолжительность: ~ 00:45:00 серия
Перевод: Профессиональный многоголосый | LostFilm
Субтитры: отсутствуют

Режиссер: Маркос Сига, Крис Грисмер, Дж. Миллер Тобин

rating

В ролях: Нина Добрев, Пол Уэсли, Иэн Сомерхолдер, Стивен Р. МакКуин, Катерина Грэхэм, Кэндис Аккола, Зак Рериг, Майкл Тревино, Сара Каннинг, Кайла Юэлл

Описание: Прошло всего четыре месяца после трагической аварии, в которой погибли их родители, и 17-летняя Елена Гилберт и ее 15-летний брат Джереми все еще пытаются оправиться от потери и вернуться к нормальной жизни. Елена всегда была отличной ученицей, красивой и популярной девушкой в школе, но теперь ей очень тяжело скрывать свою печаль от внешнего мира. В начале учебного года внимание Елены и ее друзей привлекает новый ученик, загадочный и красивый Стефан Сальваторе. Стефан и Елена тут же чувствуют взаимную симпатию, но Елена даже не подозревает, что Стефан — вампир, которому уже сотни лет, и который старается мирно жить среди людей, несмотря на то, что его брат, Дэймон — воплощение вампирской жестокости и кровожадности. Теперь два брата-вампира — один добрый, другой злой — ведут борьбу за души Елены, ее друзей и других жителей городка Мистик Фоллз.

Качество: WEB-DLRip
Формат: AVI

Видео: XviD, ~ 1300 Кбит/с, 624x352, 720х400
Аудио: Русский (MP3, 2 ch, 128-192 Кбит/с)
скриншот  скриншот  скриншот  скриншот  скриншот  

Общее
Полное имя : D:\The Vampire Diaries S01-S08 LostFilm\TVD 1\The.Vampire.Diaries.S01E01.rus.LostFilm.TV.avi
Формат : AVI
Формат/Информация : Audio Video Interleave
Размер файла : 391 Мбайт
Продолжительность : 42 м. 38 с.
Общий поток : 1284 Кбит/сек
Программа кодирования : Nandub v1.0rc2
Библиотека кодирования : Nandub build 1853/release

Видео
Идентификатор : 0
Формат : MPEG-4 Visual
Профиль формата : Advanced Simple@L5
Параметр BVOP формата : 1
Параметр QPel формата : Нет
Параметр GMC формата : Без точки перехода
Параметр матрицы формата : Выборочная
Идентификатор кодека : XVID
Идентификатор кодека/Подсказка : XviD
Продолжительность : 42 м. 38 с.
Битрейт : 1143 Кбит/сек
Ширина : 624 пикселя
Высота : 352 пикселя
Соотношение сторон : 16:9
Частота кадров : 23,976 (23976/1000) кадра/сек
Цветовое пространство : YUV
Субдискретизация насыщенности : 4:2:0
Битовая глубина : 8 бит
Тип развёртки : Прогрессивная
Метод сжатия : С потерями
Бит/(Пиксели*Кадры) : 0.217
Размер потока : 349 Мбайт (89%)
Библиотека кодирования : XviD 1.2.1 (UTC 2008-12-04)

Аудио
Идентификатор : 1
Формат : MPEG Audio
Версия формата : Version 1
Профиль формата : Layer 3
Режим : Joint stereo
Расширение режима : MS Stereo
Идентификатор кодека : 55
Идентификатор кодека/Подсказка : MP3
Продолжительность : 42 м. 38 с.
Вид битрейта : Постоянный
Битрейт : 128 Кбит/сек
Каналы : 2 канала
Частота : 48,0 КГц
Метод сжатия : С потерями
Размер потока : 39,0 Мбайт (10%)
Выравнивание : Соединение по промежуткам
Продолжительность промежутка : 24 мс. (0,58 видеокадр)
Время предзагрузки промежутка : 480 мс.
piratbit.org



Скачать Дневники вампира через торрент http://i78.fastpic.ru/big/2016/0411/ae/2da5066ae2363af6a057b9992d81a7ae.png Скачать, смотреть онлайн Дневники вампира бесплантно в хорошем качестве Описание: Прошло всего четыре месяца после трагической аварии, в которой погибли их родители, и 17-летняя Елена Гилберт и ее 15-летний брат ... 10 10 5
Торрент: Зарегистрирован [2020-03-03 08:51] · скачан: 51 раз
Статус: √ проверено
Размер: 65.96 GB
Как cкачать? Как скачать Дневники вампира через торрент | UTorrent

28-11-2019 20:33  

Отключить всю рекламу на сайте

    Дорогой пользователь! Огромная просьба, поблагодарите релизера, оцените раздачу и оставьте свои комментарий, если Вы скачали Дневники вампира через торрент бесплатно!
    Комментировать посты могут только пользователи прошедшие не сложную регистрацию
    Показать сообщения:    

    Дневники вампира через торрент
    Скачать бесплатно Дневники вампира
    Дневники вампира скачать торрент
    Дневники вампира смотреть онлайн
    Cкачать фильм Дневники вампира бесплатно
    Дневники вампира скачать торрент в хорошем качестве
    Дневники вампира смотреть онлайн бесплатно в хорошем качестве


    Вы не можете начинать темы
    Вы не можете отвечать на сообщения
    Вы не можете редактировать свои сообщения
    Вы не можете удалять свои сообщения
    Вы не можете голосовать в опросах
    Вы не можете прикреплять файлы к сообщениям
    Вы можете скачивать файлы