Ссылка на приватное зеркало всего за 1$. Внимание количество ограничено!!!

iTunes

iTunes

iTunes

1

iTunes

iTunes

iTunes

iTunes

iTunes

30
pack

Новость дня

ВАЖНО

!!Акция!!

Alien_RageХит недели

RePack

Resident Evil 21

ИГРА 18+

pack

RePack

jed

!!Акция!!

Alien_Rage

RePack

fifa19

RePack

Assassins Creed: Odyssey

RePack

NEED FOR SPEED™ PAYBACK

4 сезон

9 сезон

Бесстыжие 9 сезон

Все сериалы

все сериалы на PB.wtf

RePack

FAR CRY 5
  

Яга. Кошмар тёмного леса (Святослав Подгаевский) [2020, Ужасы, WEB-DL 1080p] [iTunes] piratbit.org

Яга. Кошмар тёмного леса через торрент piratbit.org

Раздают: 66 [ 2 MB/s ] Качают: 2 [ 0 KB/s ]
Размер: 3.36 GB | Добавлен: 4 д. назад | Торрент скачан:468 раз
Скачать  

03-03-2020 19:03 Яга. Кошмар тёмного леса Скачать торрент  

Яга. Кошмар тёмного леса
Год выпуска: 2020
Страна: Россия
Студия: Нон-стоп Продакшн, QS Films
Жанр: Ужасы
Продолжительность: 01:36:34
Перевод: Не требуется | iTunes
Субтитры: отсутствуют

Режиссер: Святослав Подгаевский

rating

В ролях: Олег Чугунов, Глаша Голубева, Артём Жигулин, Игорь Хрипунов, Светлана Устинова, Алексей Розин, Марьяна Спивак, Марта Тимофеева, Даниил Филиппов, Евгения Евстигнеева

Описание: В центре сюжета - молодая семья, которая переехала в новую квартиру на окраине города. Нанятая ими для новорожденной дочери няня быстро вошла в доверие. Однако старший мальчик, Егор, рассказывает о пугающем поведении женщины, но родители ему не верят. Камеры наблюдения, установленные отцом для успокоения, лишь подтверждают - всё в порядке. И вот однажды Егор, вернувшись домой, не находит никаких следов ни няни, ни маленькой сестры, а родители пребывают в странном трансе и даже не помнят, что у них была дочь. Тогда Егор вместе с друзьями отправляется на поиски, в ходе которых выяснится, что няня - древний славянский демон.

Качество: WEB-DL 1080p
Формат: MKV

Видео: MPEG-4 AVC, 1920x804, 4588 Kbps, 24.000 fps
Аудио: Russian: AC3, 48.0 KHz, 6 ch, 384 kbps - iTunes
скриншот  скриншот  скриншот  скриншот  

скриншот  скриншот  скриншот  скриншот  

General
Unique ID : 17204913720282621795016084675216070589 (0xCF18BBCFC715E8D18A013594040D7BD)
Complete name : JAGA_2020_WEB-DL_1080p-BLUEBIRD.mkv
Format : Matroska
Format version : Version 4 / Version 2
File size : 3.36 GiB
Duration : 1 h 36 min
Overall bit rate : 4 976 kb/s
Encoded date : UTC 2020-03-30 19:31:55
Writing application : mkvmerge v43.0.0 ('The Quartermaster') 64-bit
Writing library : libebml v1.3.10 + libmatroska v1.5.2
Cover : Yes
Attachments : cover.png

Video
ID : 1
Format : AVC
Format/Info : Advanced Video Codec
Format profile : High@L4
Format settings, CABAC : Yes
Format settings, RefFrames : 5 frames
Codec ID : V_MPEG4/ISO/AVC
Duration : 1 h 36 min
Bit rate : 4 588 kb/s
Width : 1 920 pixels
Height : 804 pixels
Display aspect ratio : 2.40:1
Frame rate mode : Constant
Frame rate : 24.000 FPS
Color space : YUV
Chroma subsampling : 4:2:0
Bit depth : 8 bits
Scan type : Progressive
Bits/(Pixel*Frame) : 0.124
Stream size : 3.09 GiB (92%)
Language : English
Default : Yes
Forced : No
Color range : Limited
Color primaries : BT.709
Transfer characteristics : BT.709
Matrix coefficients : BT.709

Audio
ID : 2
Format : AC-3
Format/Info : Audio Coding 3
Format settings, Endianness : Big
Codec ID : A_AC3
Duration : 1 h 36 min
Bit rate mode : Constant
Bit rate : 384 kb/s
Channel(s) : 6 channels
Channel positions : Front: L C R, Side: L R, LFE
Sampling rate : 48.0 kHz
Frame rate : 31.250 FPS (1536 SPF)
Bit depth : 16 bits
Compression mode : Lossy
Stream size : 265 MiB (8%)
Title : [ORIGINAL] DD 5.1 @ 384 kbps (iTunes)
Language : Russian
Service kind : Complete Main
Default : Yes
Forced : No

Menu
00:00:00.000 : en:Глава 1
00:02:06.625 : en:Глава 2
00:08:39.333 : en:Глава 3
00:16:18.374 : en:Глава 4
00:23:20.290 : en:Глава 5
00:27:37.790 : en:Глава 6
00:35:50.831 : en:Глава 7
00:39:48.164 : en:Глава 8
00:45:21.997 : en:Глава 9
00:51:23.038 : en:Глава 10
00:57:05.329 : en:Глава 11
01:03:08.120 : en:Глава 12
01:08:55.828 : en:Глава 13
01:15:15.119 : en:Глава 14
01:20:58.119 : en:Глава 15
01:27:27.535 : en:Глава 16
01:31:19.701 : en:Глава 17

piratbit.org



Скачать Яга. Кошмар тёмного леса через торрент https://i3.imageban.ru/out/2020/03/31/5d68db79e4b8ea98f1b2e5f4fa0e2c37.png Скачать фильм Яга. Кошмар тёмного леса через торрент бесплантно в хорошем качестве Описание: В центре сюжета - молодая семья, которая переехала в новую квартиру на окраине города. Нанятая ими для новорожденной дочери няня ... 10 10 22
Info! Золотая раздача, скачанное не засчитывается.
Торрент: Зарегистрирован [2020-04-01 01:29] · скачан: 468 раз
Статус: √ проверено
Размер: 3.36 GB
Как cкачать? Как скачать Яга. Кошмар тёмного леса через торрент | qTorrent

% Раздел Тема Автор DL S | L
Наши новые фильмы 2018-2019 [ 697 MB ] Яга. Кошмар тёмного леса [2020 WEB-DLRip] bober100 Скачать
25 | 0
Наши новые фильмы 2018-2019 [ 1.46 GB ] Яга. Кошмар тёмного леса [2020 WEB-DLRip] bober100 Скачать
91 | 2

28-11-2019 20:33  

Отключить всю рекламу на сайте

01-04-2020 18:45 Яга. Кошмар тёмного леса Скачать торрент  

такое редкостное говноpiratbit.org



    Дорогой пользователь! Огромная просьба, поблагодарите релизера, оцените раздачу и оставьте свои комментарий, если Вы скачали Яга. Кошмар тёмного леса через торрент бесплатно! Внесите свою лепту в развитие PiratBit!
    Комментировать посты могут только пользователи прошедшие не сложную регистрацию
    Показать сообщения:    

    Яга. Кошмар тёмного леса через торрент
    Скачать бесплатно Яга. Кошмар тёмного леса
    Яга. Кошмар тёмного леса скачать торрент
    Яга. Кошмар тёмного леса смотреть онлайн
    Cкачать фильм Яга. Кошмар тёмного леса бесплатно
    Яга. Кошмар тёмного леса скачать торрент в хорошем качестве
    Яга. Кошмар тёмного леса смотреть онлайн бесплатно в хорошем качестве


    Вы не можете начинать темы
    Вы не можете отвечать на сообщения
    Вы не можете редактировать свои сообщения
    Вы не можете удалять свои сообщения
    Вы не можете голосовать в опросах
    Вы не можете прикреплять файлы к сообщениям
    Вы можете скачивать файлы