Доктор Стрэндж

Лицензия

Добыча

MVO

Дом дракона

1 сезон

Тор

Лицензия

Мэверик

Лицензия

Там, где раки поют

MVO

Властелин колец

1 сезон

Ultimate

pack

Рекомендуем

30

Repack

ВАЖНО

ВАЖНО

Ghostwire

RePack

jed

RePack

nioh2

RePack

RDR2

RePack

NEED FOR SPEED™ PAYBACK

RePack

скачать торрент

Кинопоиск HD

Острые козырьки 6 сезон

6 сезон

FAR CRY 6

RePack

скачать торрент

Лицензия

скачать торрент

MVO

1

1 сезон

скачать торрент

1 сезон

скачать торрент

Лицензия

  

Криминальный квартет (Александр Муратов) [1989 г., боевик, детектив, HDTVRip 720p]

Криминальный квартет через торрент piratbit.org

Размер: 2.77 GB | Добавлен: 2 года 6 мес. назад | Торрент скачан:30 раз
Смотреть онлайн Криминальный квартет | Скачать   

05-03-2020 04:41 Криминальный квартет Скачать торрент  

Криминальный квартет
Год выпуска: 1989

Страна: СССР

Жанр: Боевик, детектив

Продолжительность: 01:24:20

Режиссер: Александр Муратов

rating

В ролях: Николай Караченцов, Владимир Стеклов, Борис Щербаков, Владимир Ерёмин, Неле Савиченко-Климене, Иван Мурадханов, Вадим Спиридонов, Игорь Ясулович, Семён Фарада, Вадим Яковлев, Борис Клюев, Алексей Шейнин, Юрий Катин-Ярцев, Юрий Гусев, Софья Горшкова, Лев Прыгунов, Олег Анофриев, Юрий Назаров, Сергей Лосев, Валентина Березуцкая, Даниил Нетребин, Виктор Филиппов, Михаил Чигарёв, Галина Казакова, Галина Самойлова-Ледогорова, Григорий Маликов, Юрий Доронин, Герман Полосков, Гурген Тонунц, Георгиос Совчис, Дмитрий Матвеев, Александр Кузьмичев, Владимир Козелков, Владимир Трещалов

Описание: Следователь обнаруживает на торговой базе крупную партию бракованной обуви и заводит по этому поводу дело. Внезапно у него пропадает сын. Вскоре раздаётся звонок. Похитители требуют, чтобы он закрыл дело, если хочет увидеть своего сына живым…Герой рассказывает об этом своим друзьям, двум оперативникам и журналисту. Они дружат ещё с детского дома и готовы ради товарища пойти на всё! Четверо бесстрашных мужчин бросают вызов мафии...
Качество: HDTVRip 720p
Формат: MKV
Видео: MPEG-4 AVC, 4500 Кбит/с, 960x720, 25 кадр/с
Аудио: Русский, MP2, 2 ch, 192 Кбит/с
Видео
Идентификатор : 1
Формат : AVC
Формат/Информация : Advanced Video Codec
Профиль формата : High@L4.1
Настройки формата : CABAC / 4 Ref Frames
Параметр CABAC формата : Да
Параметр RefFrames формата : 4 кадра
Идентификатор кодека : V_MPEG4/ISO/AVC
Продолжительность : 1 ч. 24 м.
Битрейт : 4500 Кбит/сек
Ширина : 960 пикселей
Высота : 720 пикселей
Соотношение сторон : 4:3
Режим частоты кадров : Постоянный
Частота кадров : 25,000 кадров/сек
Цветовое пространство : YUV
Субдискретизация насыщенности : 4:2:0
Битовая глубина : 8 бит
Тип развёртки : Прогрессивная
Бит/(Пиксели*Кадры) : 0.260
Размер потока : 2,60 Гбайт (94%)
Библиотека кодирования : x264 core 155 r2901 7d0ff22
Настройки программы : cabac=1 / ref=4 / deblock=1:-3:-3 / analyse=0x3:0x133 / me=umh / subme=11 / psy=1 / psy_rd=1.00:0.10 / mixed_ref=1 / me_range=32 / chroma_me=1 / trellis=2 / 8x8dct=1 / cqm=0 / deadzone=21,11 / fast_pskip=0 / chroma_qp_offset=-3 / threads=12 / lookahead_threads=2 / sliced_threads=0 / nr=0 / decimate=1 / interlaced=0 / bluray_compat=0 / constrained_intra=0 / bframes=9 / b_pyramid=2 / b_adapt=2 / b_bias=0 / direct=3 / weightb=1 / open_gop=0 / weightp=2 / keyint=250 / keyint_min=25 / scenecut=40 / intra_refresh=0 / rc_lookahead=50 / rc=2pass / mbtree=1 / bitrate=4500 / ratetol=1.0 / qcomp=0.60 / qpmin=0 / qpmax=69 / qpstep=4 / cplxblur=20.0 / qblur=0.5 / ip_ratio=1.40 / aq=1:1.00
Default : Да
Forced : Нет

Аудио
Идентификатор : 2
Формат : MPEG Audio
Версия формата : Version 1
Профиль формата : Layer 2
Идентификатор кодека : A_MPEG/L2
Идентификатор кодека/Подсказка : MP2
Продолжительность : 1 ч. 24 м.
Вид битрейта : Постоянный
Битрейт : 192 Кбит/сек
Каналы : 2 канала
Частота : 48,0 КГц
Метод сжатия : С потерями
Размер потока : 116 Мбайт (4%)
Default : Да
Forced : Нет

скриншот   скриншот   скриншот   скриншот   скриншот  




Скачать Криминальный квартет через торрент https://pic1.kartinco.top/images/12/bi7iv.jpg Скачать, смотреть онлайн Криминальный квартет бесплантно в хорошем качестве Описание: Следователь обнаруживает на торговой базе крупную партию бракованной обуви и заводит по этому поводу дело. Внезапно у него ... 10 10 1
Торрент: Зарегистрирован [2020-03-05 04:41] · скачан: 30 раз
Статус: √ проверено
Размер: 2.77 GB
Как cкачать? Как скачать Криминальный квартет через торрент | UTorrent

28-11-2019 20:33  

Отключить вcю реклaмy на сайте

    Дорогой пользователь! Огромная просьба, поблагодарите релизера, оцените раздачу и оставьте свои комментарий, если Вы скачали Криминальный квартет через торрент бесплатно!!
    Комментировать посты могут только пользователи прошедшие не сложную регистрацию
    Показать сообщения:    


    Криминальный квартет через торрент
    Скачать бесплатно Криминальный квартет
    Криминальный квартет скачать торрент
    Криминальный квартет смотреть онлайн
    Cкачать фильм Криминальный квартет бесплатно
    Криминальный квартет скачать торрент в хорошем качестве
    Криминальный квартет смотреть онлайн бесплатно в хорошем качестве
    Вы не можете начинать темы
    Вы не можете отвечать на сообщения
    Вы не можете редактировать свои сообщения
    Вы не можете удалять свои сообщения
    Вы не можете голосовать в опросах
    Вы не можете прикреплять файлы к сообщениям
    Вы можете скачивать файлы