Доктор Стрэндж

Лицензия

Добыча

Дубляж

Уэнсдэй

1 сезон

Тор

Дубляж

В эфире

Дубляж

Там, где раки поют

MVO

Властелин колец

1 сезон

Deluxe

pack

Рекомендуем

30

Пиратка

ВАЖНО

ВАЖНО

Ghostwire

Пиратка

jed

RePack

nioh2

RePack

RDR2

RePack

NEED FOR SPEED™ PAYBACK

RePack

скачать торрент

Кинопоиск HD

Острые козырьки 6 сезон

6 сезон

FAR CRY 6

RePack

скачать торрент

Лицензия

скачать торрент

MVO

1

1 сезон

скачать торрент

1 сезон

скачать торрент

Лицензия

  

Джуманджи: Новый уровень / Jumanji: The Next Level (Джейк Кэздан) [2019, фэнтези, боевик, комедия, приключения, BDRip-AVC] Дубляж [iTunes] - ExKinoRa

Джуманджи: Новый уровень через торрент piratbit.org

Размер: 2.09 GB | Добавлен: 2 года 9 мес. назад | Торрент скачан:368 раз
Смотреть онлайн | Скачать   

05-03-2020 06:15 Джуманджи: Новый уровень Скачать торрент  

Название: Джуманджи: Новый уровень
Оригинальное название: Jumanji: The Next Level
Год выхода: 2019
Жанр: Фэнтези, боевик, комедия, приключения
Режиссер: Джейк Кэздан
В ролях: Дуэйн Джонсон, Джек Блэк, Кевин Харт, Карен Гиллан, Ник Джонас, Аквафина, Риз Дэрби, Дэнни ДеВито, Дэнни Гловер, Морган Тернер, Алекс Вулф, Мэдисон Айсмен, Сер’Дариус Блэйн, Колин Хэнкс, Марин Хинкль

Описание:
Пытаясь спасти Спенсера, снова попавшего в игру, туда же отправляются и остальные. К их удивлению, правила Джуманджи изменились, и более того — на этот раз в игру затянуло дедулю Спенсера и его престарелого друга Майло. Чтобы выполнить задания и вернуться домой, друзьям предстоит отправиться в путешествие по ранее неизведанным и таинственным уголкам Джуманджи — от засушливой пустыни до заснеженных гор.


rating

Страна: США
Студия: Hartbeat Productions, Matt Tolmach Productions, Seven Bucks Productions
Продолжительность: 02:03:10
Перевод: Дублированный | iTunes

Формат: MKV
Качество: BDRip-AVC
Видео: MPEG-4 AVC, 1024x428 (2.40:1), 23.976 fps, 1808 Kbps, 0.172 bit/pixel
Аудио #01: 48 kHz, AC3, 5.1, 384 Kbps | Дублированный | RUS |
Аудио #02: 48 kHz, AC3, 2.0, 192 Kbps | Дублированный | UKR |
Субтитры: Русские (Forced, full), украинские (Full), английские
General
Unique ID : 249414678734115758035736751318968910710 (0xBBA38513DD9A7A55AFBDC25EE25D4376)
Complete name : F:Jumanji.The.Next.Level.2019.BDRip.AVC.ExKinoRay.mkv
Format : Matroska
Format version : Version 2
File size : 2.09 GiB
Duration : 2 h 3 min
Overall bit rate : 2 432 kb/s
Movie name : Jumanji The Next Level 2019 from ExKinoRay
Encoded date : UTC 2020-03-05 04:46:25
Writing application : mkvmerge v5.6.0 ('Kenya Kane') built on May 27 2012 16:44:04
Writing library : libebml v1.2.3 + libmatroska v1.3.0
Attachments : front.jpg

Video
ID : 1
Format : AVC
Format/Info : Advanced Video Codec
Format profile : High@L4.1
Format settings, CABAC : Yes
Format settings, ReFrames : 12 frames
Codec ID : V_MPEG4/ISO/AVC
Duration : 2 h 3 min
Bit rate : 1 808 kb/s
Width : 1 024 pixels
Height : 428 pixels
Display aspect ratio : 2.40:1
Frame rate mode : Constant
Frame rate : 23.976 (23976/1000) FPS
Color space : YUV
Chroma subsampling : 4:2:0
Bit depth : 8 bits
Scan type : Progressive
Bits/(Pixel*Frame) : 0.172
Stream size : 1.56 GiB (74%)
Title : Enigma
Writing library : x264 core 152 r2851 ba24899
Encoding settings : cabac=1 / ref=12 / deblock=1:-2:-2 / analyse=0x3:0x113 / me=umh / subme=10 / psy=1 / psy_rd=1.04:0.05 / mixed_ref=1 / me_range=32 / chroma_me=1 / trellis=2 / 8x8dct=1 / cqm=0 / deadzone=21,11 / fast_pskip=0 / chroma_qp_offset=-3 / threads=12 / lookahead_threads=3 / sliced_threads=0 / nr=0 / decimate=0 / interlaced=0 / bluray_compat=0 / constrained_intra=0 / bframes=10 / b_pyramid=2 / b_adapt=2 / b_bias=0 / direct=3 / weightb=1 / open_gop=0 / weightp=2 / keyint=240 / keyint_min=23 / scenecut=40 / intra_refresh=0 / rc=crf / mbtree=0 / crf=18.0 / qcomp=0.60 / qpmin=0 / qpmax=51 / qpstep=4 / ip_ratio=1.40 / pb_ratio=1.30 / aq=1:1.00
Language : English
Default : Yes
Forced : No
Color range : Limited
Color primaries : BT.709
Transfer characteristics : BT.709
Matrix coefficients : BT.709

Audio #1
ID : 2
Format : AC-3
Format/Info : Audio Coding 3
Mode extension : CM (complete main)
Format settings, Endianness : Big
Codec ID : A_AC3
Duration : 2 h 3 min
Bit rate mode : Constant
Bit rate : 384 kb/s
Channel(s) : 6 channels
Channel positions : Front: L C R, Side: L R, LFE
Sampling rate : 48.0 kHz
Frame rate : 31.250 FPS (1536 spf)
Compression mode : Lossy
Stream size : 338 MiB (16%)
Title : iTunes
Language : Russian
Default : Yes
Forced : No

Audio #2
ID : 3
Format : AC-3
Format/Info : Audio Coding 3
Mode extension : CM (complete main)
Format settings, Endianness : Big
Codec ID : A_AC3
Duration : 2 h 3 min
Bit rate mode : Constant
Bit rate : 192 kb/s
Channel(s) : 2 channels
Channel positions : Front: L R
Sampling rate : 48.0 kHz
Frame rate : 31.250 FPS (1536 spf)
Compression mode : Lossy
Stream size : 169 MiB (8%)
Title : iTunes
Language : Ukrainian
Default : No
Forced : No

Text #1
ID : 4
Format : UTF-8
Codec ID : S_TEXT/UTF8
Codec ID/Info : UTF-8 Plain Text
Title : Forced
Language : Russian
Default : Yes
Forced : No

Text #2
ID : 5
Format : UTF-8
Codec ID : S_TEXT/UTF8
Codec ID/Info : UTF-8 Plain Text
Title : Full
Language : Russian
Default : No
Forced : No

Text #3
ID : 6
Format : UTF-8
Codec ID : S_TEXT/UTF8
Codec ID/Info : UTF-8 Plain Text
Title : Full
Language : Ukrainian
Default : No
Forced : No

Text #4
ID : 7
Format : UTF-8
Codec ID : S_TEXT/UTF8
Codec ID/Info : UTF-8 Plain Text
Language : English
Default : No
Forced : No

Menu
00:00:00.000 : en:Chapter01
00:09:18.349 : en:Chapter02
00:17:40.476 : en:Chapter03
00:23:10.681 : en:Chapter04
00:31:12.287 : en:Chapter05
00:38:19.130 : en:Chapter06
00:42:39.265 : en:Chapter07
00:48:52.972 : en:Chapter08
00:57:11.428 : en:Chapter09
01:06:03.001 : en:Chapter10
01:13:16.142 : en:Chapter11
01:21:29.093 : en:Chapter12
01:28:33.725 : en:Chapter13
01:32:39.512 : en:Chapter14
01:37:05.403 : en:Chapter15
01:45:00.586 : en:Chapter16


Релиз от: VK релиз-группы

Автор релиза: Enigma



Скачать Джуманджи: Новый уровень через торрент https://img10.lostpic.net/2020/03/04/21f367e6d25c3c66e25da12a286b8266.jpg Скачать, смотреть онлайн Джуманджи: Новый уровень бесплантно в хорошем качестве Описание: Пытаясь спасти Спенсера, снова попавшего в игру, туда же отправляются и остальные. К их удивлению, правила Джуманджи изменились, ... 9.9 10 7
Info! Золотая раздача, скачанное не засчитывается.
Торрент: Зарегистрирован [2020-03-05 06:15] · скачан: 368 раз
Статус: √ проверено
Размер: 2.09 GB
Как cкачать? Как скачать Джуманджи: Новый уровень через торрент | UTorrent

28-11-2019 20:33  


Отключить вcю реклaмy на сайте, в т.ч. и в плеере онлайн просмотра!

    Дорогой пользователь! Огромная просьба, поблагодарите релизера, оцените раздачу и оставьте свои комментарий, если Вы скачали Джуманджи: Новый уровень через торрент бесплатно!!
    Комментировать посты могут только пользователи прошедшие не сложную регистрацию
    Показать сообщения:    


    Джуманджи: Новый уровень через торрент
    Скачать бесплатно Джуманджи: Новый уровень
    Джуманджи: Новый уровень скачать торрент
    Джуманджи: Новый уровень смотреть онлайн
    Cкачать фильм Джуманджи: Новый уровень бесплатно
    Джуманджи: Новый уровень скачать торрент в хорошем качестве
    Джуманджи: Новый уровень смотреть онлайн бесплатно в хорошем качестве
    Вы не можете начинать темы
    Вы не можете отвечать на сообщения
    Вы не можете редактировать свои сообщения
    Вы не можете удалять свои сообщения
    Вы не можете голосовать в опросах
    Вы не можете прикреплять файлы к сообщениям
    Вы можете скачивать файлы
    Джуманджи: Новый уровень / Jumanji: The Next Level [2019, фэнтези, боевик, комедия, приключения, BDRip-AVC] Дубляж [iTunes] - ExKinoRa смотреть онлайн, скачать торрент picoco.icu