Достать ножи: Стеклянная луковица

MVO

Добыча

Дубляж

Уэнсдэй

1 сезон

Тор

Дубляж

13 клиническая

1 сезон

Жестокая ночь

MVO

Одни из нас

1 сезон

Deluxe

pack

Рекомендуем

30

Пиратка

ВАЖНО

ВАЖНО

Ghostwire

Пиратка

jed

RePack

nioh2

RePack

RDR2

RePack

NEED FOR SPEED™ PAYBACK

RePack

скачать торрент

Кинопоиск HD

Острые козырьки 6 сезон

6 сезон

FAR CRY 6

RePack

скачать торрент

Лицензия

скачать торрент

MVO

1

1 сезон

скачать торрент

1 сезон

скачать торрент

Лицензия

  

Воздушный шар / Ballon (Михаэль Хербиг) [2018, Триллер, драма, история, UHD BDRemux 2160p] MVO [HDRezka]

Воздушный шар через торрент piratbit.org

Размер: 53.07 GB | Добавлен: 2 года 10 мес. назад | Торрент скачан:60 раз
Смотреть онлайн | Скачать | Поддержите нас   

07-03-2020 13:54 Воздушный шар Скачать торрент  

Воздушный шар | Ballon
Год выпуска: 2018
Страна: Германия
Жанр: Триллер, драма, история
Продолжительность: 02:05:20
Перевод: Профессиональный (многоголосый) | HDRezka
Субтитры: Русские (forced), английские (full), немецкие (full, SDH)

Режиссер: Михаэль Хербиг

rating

В ролях: Фридрих Мюке, Каролина Шух, Алисия фон Риттберг, Давид Кросс, Томас Кречманн, Йонас Холденриедер, Тильман Дёблер, Рональд Кукулис, Эмили Куше, Кристиан Нёте

Описание: Действия фильма происходят в 1979 году. Германия разделена на два государства, и некогда единый народ оказался по разные стороны границы. У людей не было возможности объединиться, и много семей были разделены. Стрельцик и Ветцель — два семейства, которые хотят бежать из ГДР в Западную Германию, чтобы начать там лучшую жизнь. Они разрабатывают план побега и приходят к выводу, что пересечь границу можно только на воздушном шаре. Но проблема заключается в том, что у них нет шара. Тогда они решают сделать его собственными руками, что оказывается очень непростой задачей. Но самое сложное — пересечь границу в то время, когда за каждым шагом населения тщательно наблюдают спецслужбы.

Качество: UHD BDRemux 2160p
Формат: MKV

Видео: MPEG-H HEVC HDR, ~ 54.1 Mбит/с, 3840x2160p, 24.000 кадр/с
Аудио#1 Русский: 48 kHz, AC3, 3/2 (L,C,R,l,r) + LFE ch, 448 kbps / Многоголосый закадровый, HDRezka
Аудио#2 Немецкий: 48 kHz/24-bit, Atmos TrueHD 7.1, 5394 kbps
Аудио#3 Немецкий: 48 kHz, AC3, 3/2 (L,C,R,l,r) + LFE ch, 640 kbps
скриншот  скриншот  скриншот  скриншот  скриншот  

General
Unique ID : 167763413374938782498664391012096786186 (0x7E360EE234ECA8727E05C4D6C345BF0A)
Complete name : C:KINOBallon.2018.BDRemux.2160p.HDR. by Silverok.mkv
Format : Matroska
Format version : Version 4
File size : 53.1 GiB
Duration : 2 h 5 min
Overall bit rate mode : Variable
Overall bit rate : 60.6 Mb/s
Movie name : Ballon.2018.BDRemux.2160p.HDR. by Silverok
Encoded date : UTC 2020-03-07 08:44:43
Writing application : mkvmerge v43.0.0 ('The Quartermaster') 64-bit
Writing library : libebml v1.3.10 + libmatroska v1.5.2
Cover : Yes
Attachments : cover.jpg

Video
ID : 1
Format : HEVC
Format/Info : High Efficiency Video Coding
Format profile : Main 10@L5.1@High
HDR format : SMPTE ST 2086, HDR10 compatible
Codec ID : V_MPEGH/ISO/HEVC
Duration : 2 h 5 min
Bit rate : 54.1 Mb/s
Width : 3 840 pixels
Height : 2 160 pixels
Display aspect ratio : 16:9
Frame rate mode : Constant
Frame rate : 24.000 FPS
Color space : YUV
Chroma subsampling : 4:2:0 (Type 2)
Bit depth : 10 bits
Bits/(Pixel*Frame) : 0.272
Stream size : 47.3 GiB (89%)
Title : BDRemux.2160p.HDR. by Silverok
Writing library : ATEME Titan File 3.9.4 (4.9.4.0)
Default : Yes
Forced : No
Color range : Limited
Color primaries : BT.2020
Transfer characteristics : PQ
Matrix coefficients : BT.2020 non-constant
Mastering display color primaries : Display P3
Mastering display luminance : min: 0.0001 cd/m2, max: 1000 cd/m2
Maximum Content Light Level : 905 cd/m2
Maximum Frame-Average Light Level : 595 cd/m2

Audio #1
ID : 2
Format : AC-3
Format/Info : Audio Coding 3
Commercial name : Dolby Digital
Codec ID : A_AC3
Duration : 2 h 5 min
Bit rate mode : Constant
Bit rate : 448 kb/s
Channel(s) : 6 channels
Channel layout : L R C LFE Ls Rs
Sampling rate : 48.0 kHz
Frame rate : 31.250 FPS (1536 SPF)
Compression mode : Lossy
Stream size : 402 MiB (1%)
Title : Многоголосый закадровый, HDRezka
Language : Russian
Service kind : Complete Main
Default : Yes
Forced : No

Audio #2
ID : 3
Format : MLP FBA 16-ch
Format/Info : Meridian Lossless Packing FBA with 16-channel presentation
Commercial name : Dolby TrueHD with Dolby Atmos
Codec ID : A_TRUEHD
Duration : 2 h 5 min
Bit rate mode : Variable
Bit rate : 5 394 kb/s
Maximum bit rate : 10.1 Mb/s
Channel(s) : 8 channels
Channel layout : L R C LFE Ls Rs Lb Rb
Sampling rate : 48.0 kHz
Frame rate : 1 200.000 FPS (40 SPF)
Compression mode : Lossless
Stream size : 4.72 GiB (9%)
Language : German
Default : No
Forced : No
Number of dynamic objects : 13
Bed channel count : 1 channel
Bed channel configuration : LFE

Audio #3
ID : 4
Format : AC-3
Format/Info : Audio Coding 3
Commercial name : Dolby Digital
Codec ID : A_AC3
Duration : 2 h 5 min
Bit rate mode : Constant
Bit rate : 640 kb/s
Channel(s) : 6 channels
Channel layout : L R C LFE Ls Rs
Sampling rate : 48.0 kHz
Frame rate : 31.250 FPS (1536 SPF)
Compression mode : Lossy
Stream size : 574 MiB (1%)
Language : German
Service kind : Complete Main
Default : No
Forced : No

Text #1
ID : 5
Format : UTF-8
Codec ID : S_TEXT/UTF8
Codec ID/Info : UTF-8 Plain Text
Duration : 20 s 906 ms
Bit rate : 164 b/s
Count of elements : 5
Stream size : 431 Bytes (0%)
Title : Forced
Language : Russian
Default : Yes
Forced : No

Text #2
ID : 6
Format : UTF-8
Codec ID : S_TEXT/UTF8
Codec ID/Info : UTF-8 Plain Text
Duration : 2 h 2 min
Bit rate : 43 b/s
Count of elements : 1127
Stream size : 38.9 KiB (0%)
Title : Full
Language : English
Default : No
Forced : No

Text #3
ID : 7
Format : UTF-8
Codec ID : S_TEXT/UTF8
Codec ID/Info : UTF-8 Plain Text
Duration : 2 h 4 min
Bit rate : 44 b/s
Count of elements : 1101
Stream size : 40.5 KiB (0%)
Title : Full
Language : German
Default : No
Forced : No

Text #4
ID : 8
Format : UTF-8
Codec ID : S_TEXT/UTF8
Codec ID/Info : UTF-8 Plain Text
Duration : 2 h 4 min
Bit rate : 49 b/s
Count of elements : 1285
Stream size : 45.1 KiB (0%)
Title : SDH
Language : German
Default : No
Forced : No

Menu
00:00:00.000 : en:Chapter 1
00:10:22.750 : en:Chapter 2
00:19:03.375 : en:Chapter 3
00:29:09.333 : en:Chapter 4
00:39:08.292 : en:Chapter 5
00:49:43.542 : en:Chapter 6
00:59:48.792 : en:Chapter 7
01:11:58.333 : en:Chapter 8
01:20:01.458 : en:Chapter 9
01:29:27.583 : en:Chapter 10
01:39:52.875 : en:Chapter 11
01:50:16.958 : en:Chapter 12




Скачать Воздушный шар через торрент https://b.radikal.ru/b04/2003/b4/9c96bcee7738.jpg Скачать, смотреть онлайн Воздушный шар бесплантно в хорошем качестве Описание: Действия фильма происходят в 1979 году. Германия разделена на два государства, и некогда единый народ оказался по разные стороны ... 10 10 5
Торрент: Зарегистрирован [2020-03-07 13:54] · скачан: 60 раз
Статус: √ проверено
Размер: 53.07 GB
Как cкачать? Как скачать Воздушный шар через торрент | UTorrent

% Раздел Тема Автор DL S | L
Фильмы 2018 [DVDrip, WEB-DLRip, HDrip] (DUB, MVO) [ 1.46 GB ] Воздушный шар / Ballon | MVO | HDRip killermax2013 Скачать
2 | 0
T Релизы по Парсеру [Игры, Сериалы и Фильмы и другое...] [ 12.34 GB ] Воздушный шар / Ballon | HDRezka Studio | 1080p -Lexx- Скачать
1 | 0
Фильмы [HD 720p, 1080p] (Хороший звук DUB, MVO) [ 7.09 GB ] Воздушный шар / Ballon | HDRezka Studio | 720p killermax2013 Скачать
1 | 0
T Фильмы 2018 [DVDrip, WEB-DLRip, HDrip] (DUB, MVO) [ 1.46 GB ] Воздушный шар / Ballon | HDRezka Studio | BDRip bober100 Скачать
1 | 0

28-11-2019 20:33  


Отключить вcю реклaмy на сайте, в т.ч. и в плеере онлайн просмотра!

    Дорогой пользователь! Огромная просьба, поблагодарите релизера, оцените раздачу и оставьте свои комментарий, если Вы скачали Воздушный шар через торрент бесплатно!!
    Комментировать посты могут только пользователи прошедшие не сложную регистрацию
    Показать сообщения:    


    Воздушный шар через торрент
    Скачать бесплатно Воздушный шар
    Воздушный шар скачать торрент
    Воздушный шар смотреть онлайн
    Cкачать фильм Воздушный шар бесплатно
    Воздушный шар скачать торрент в хорошем качестве
    Воздушный шар смотреть онлайн бесплатно в хорошем качестве
    Вы не можете начинать темы
    Вы не можете отвечать на сообщения
    Вы не можете редактировать свои сообщения
    Вы не можете удалять свои сообщения
    Вы не можете голосовать в опросах
    Вы не можете прикреплять файлы к сообщениям
    Вы можете скачивать файлы
    Воздушный шар / Ballon [2018, Триллер, драма, история, UHD BDRemux 2160p] MVO [HDRezka] смотреть онлайн, скачать торрент picoco.icu