Ссылка на приватное зеркало всего за 1$. Внимание количество ограничено!!!

iTunes

iTunes

iTunes

1

iTunes

iTunes

iTunes

iTunes

iTunes

30
pack

Новость дня

ВАЖНО

!!Акция!!

Alien_RageХит недели

RePack

Resident Evil 21

ИГРА 18+

pack

RePack

jed

!!Акция!!

Alien_Rage

RePack

fifa19

RePack

Assassins Creed: Odyssey

RePack

NEED FOR SPEED™ PAYBACK

4 сезон

9 сезон

Бесстыжие 9 сезон

Все сериалы

все сериалы на PB.wtf

RePack

FAR CRY 5
  

Бладшот / Bloodshot (Дэйв Уилсон) [2020, фантастика, боевик, драма, UHD WEB-DL 2160p, (SDR)] DUB [iTunes] piratbit.org

Бладшот через торрент piratbit.org

Раздают: 37 [ 14 MB/s ] Качают: 8 [ 3 MB/s ]
Размер: 17.26 GB | Добавлен: 6 д. назад | Торрент скачан:173 раза
Скачать  

09-03-2020 08:56 Бладшот Скачать торрент  

Бладшот | Bloodshot
Год выпуска: 2020
Страна: США, Китай
Студия: Sony Pictures Entertainment (SPE), Bona Film Group, Columbia Pictures
Жанр: фантастика, боевик, драма
Продолжительность: 01:49:20
Перевод: Дублированный | iTunes
Субтитры: Русские (Forced, full), украинские (Full), английские

Режиссер: Дэйв Уилсон

rating скриншот  

В ролях: Вин Дизель, Сэм Хьюэн, Эйса Гонсалес, Гай Пирс, Талула Райли, Тоби Кеббелл, Ламорн Моррис, Йоуханнес Хёйкьюр Йоуханнессон, Сиддхартх Дхананджай, Алекс Эрнандез

Описание: Корпорация RST возвращает к жизни недавно убитого солдата Рэя Гаррисона. Армия нанороботов в его крови превратила Рэя в бессмертного Бладшота, наделенного сверхчеловеческой силой и способностью мгновенно самоисцеляться. Контролируя тело Рэя, компания влияет на его разум и воспоминания. Но герой пойдет на все, чтобы выяснить правду.

Качество: UHD WEB-DL 2160p
Формат: MKV

Видео: 3840x2160 at 23.976 fps, MPEG-H HEVC SDR Video, 21600 kbps avg
Аудио #01: 48 kHz, AC3, 5.1, 384 Kbps | iTunes | RUS |
Аудио #02: 48 kHz, E-AC3, 5.1, 640 Kbps | Оригинал | ENG |
скриншот  скриншот  скриншот  скриншот  скриншот  

General
Unique ID : 269527008829824783950818914987048947402 (0xCAC50382AC0FC37E8718BC8C20C3CECA)
Complete name : E:Video111Bloodshot.2020.WEB-DL.2160p.SDR.seleZen.mkv
Format : Matroska
Format version : Version 4
File size : 17.3 GiB
Duration : 1 h 49 min
Overall bit rate : 22.6 Mb/s
Movie name : Bloodshot 2020 from селезень
Encoded date : UTC 2020-03-28 19:49:54
Writing application : mkvmerge v40.0.0 ('Old Town Road + Pony') 64-bit
Writing library : libebml v1.3.9 + libmatroska v1.5.2

Video
ID : 1
Format : HEVC
Format/Info : High Efficiency Video Coding
Format profile : Main 10@L5@High
Codec ID : V_MPEGH/ISO/HEVC
Duration : 1 h 49 min
Bit rate : 21.6 Mb/s
Width : 3 840 pixels
Height : 2 160 pixels
Display aspect ratio : 16:9
Frame rate mode : Constant
Frame rate : 23.976 (24000/1001) FPS
Color space : YUV
Chroma subsampling : 4:2:0
Bit depth : 10 bits
Bits/(Pixel*Frame) : 0.109
Stream size : 16.5 GiB (95%)
Language : English
Default : Yes
Forced : No
Color range : Limited
Color primaries : BT.709
Transfer characteristics : BT.709
Matrix coefficients : BT.709

Audio #1
ID : 2
Format : AC-3
Format/Info : Audio Coding 3
Commercial name : Dolby Digital
Codec ID : A_AC3
Duration : 1 h 49 min
Bit rate mode : Constant
Bit rate : 384 kb/s
Channel(s) : 6 channels
Channel layout : L R C LFE Ls Rs
Sampling rate : 48.0 kHz
Frame rate : 31.250 FPS (1536 SPF)
Compression mode : Lossy
Stream size : 300 MiB (2%)
Title : iTunes
Language : Russian
Service kind : Complete Main
Default : Yes
Forced : Yes

Audio #2
ID : 3
Format : E-AC-3
Format/Info : Enhanced AC-3
Commercial name : Dolby Digital Plus
Codec ID : A_EAC3
Duration : 1 h 49 min
Bit rate mode : Constant
Bit rate : 640 kb/s
Channel(s) : 6 channels
Channel layout : L R C LFE Ls Rs
Sampling rate : 48.0 kHz
Frame rate : 31.250 FPS (1536 SPF)
Compression mode : Lossy
Stream size : 500 MiB (3%)
Title : Original
Language : English
Service kind : Complete Main
Default : No
Forced : No

Text #1
ID : 4
Format : UTF-8
Codec ID : S_TEXT/UTF8
Codec ID/Info : UTF-8 Plain Text
Duration : 1 h 47 min
Bit rate : 0 b/s
Count of elements : 10
Stream size : 400 Bytes (0%)
Title : Forced
Language : Russian
Default : Yes
Forced : Yes

Text #2
ID : 5
Format : UTF-8
Codec ID : S_TEXT/UTF8
Codec ID/Info : UTF-8 Plain Text
Duration : 1 h 48 min
Bit rate : 72 b/s
Count of elements : 1072
Stream size : 57.8 KiB (0%)
Title : Full
Language : Russian
Default : No
Forced : No

Text #3
ID : 6
Format : UTF-8
Codec ID : S_TEXT/UTF8
Codec ID/Info : UTF-8 Plain Text
Duration : 1 h 48 min
Bit rate : 66 b/s
Count of elements : 1071
Stream size : 52.6 KiB (0%)
Title : Full
Language : Ukrainian
Default : No
Forced : No

Text #4
ID : 7
Format : UTF-8
Codec ID : S_TEXT/UTF8
Codec ID/Info : UTF-8 Plain Text
Duration : 1 h 41 min
Bit rate : 46 b/s
Count of elements : 1150
Stream size : 34.9 KiB (0%)
Title : Full
Language : English
Default : No
Forced : No

Text #5
ID : 8
Format : UTF-8
Codec ID : S_TEXT/UTF8
Codec ID/Info : UTF-8 Plain Text
Duration : 1 h 47 min
Bit rate : 51 b/s
Count of elements : 1493
Stream size : 40.6 KiB (0%)
Title : SDH
Language : English
Default : No
Forced : No

Menu
00:00:00.000 : en:Studio Logo
00:01:02.000 : en:Scene 2
00:04:10.000 : en:Scene 3
00:05:09.000 : en:Scene 4
00:07:01.000 : en:Scene 5
00:08:51.000 : en:Scene 6
00:13:04.000 : en:Scene 7
00:17:31.000 : en:Scene 8
00:20:39.000 : en:Scene 9
00:22:46.000 : en:Scene 10
00:25:07.000 : en:Scene 11
00:27:57.000 : en:Scene 12
00:29:27.000 : en:Scene 13
00:32:12.000 : en:Scene 14
00:32:43.000 : en:Scene 15
00:38:27.000 : en:Scene 16
00:41:42.000 : en:Scene 17
00:43:21.000 : en:Scene 18
00:50:55.000 : en:Scene 19
00:52:44.000 : en:Scene 20
00:54:16.000 : en:Scene 21
00:56:21.000 : en:Scene 22
01:02:31.000 : en:Scene 23
01:08:10.000 : en:Scene 24
01:09:01.000 : en:Scene 25
01:09:51.000 : en:Scene 26
01:12:44.000 : en:Scene 27
01:17:38.000 : en:Scene 28
01:19:16.000 : en:Scene 29
01:22:21.000 : en:Scene 30
01:27:32.000 : en:Scene 31
01:28:15.000 : en:Scene 32
01:31:09.000 : en:Scene 33
01:35:20.000 : en:Scene 34
01:38:33.000 : en:Scene 35
01:42:38.000 : en:End Credits

piratbit.org



Скачать Бладшот через торрент https://i111.fastpic.ru/big/2020/0329/af/7efdd2c2905569ad08d27fd4079547af.jpg Скачать фильм Бладшот через торрент бесплантно в хорошем качестве Описание: Корпорация RST возвращает к жизни недавно убитого солдата Рэя Гаррисона. Армия нанороботов в его крови превратила Рэя в ... 9.6 10 35
Торрент: Зарегистрирован [2020-03-29 04:26] · скачан: 173 раз
Статус: √ проверено
Размер: 17.26 GB
Как cкачать? Как скачать Бладшот через торрент | qTorrent

% Раздел Тема Автор DL S | L
Фильмы 2019-2020 [DVDrip, WEB-DLRip, HDrip] (DUB, MVO) [ 1.46 GB ] Бладшот / Bloodshot [2020 WEB-DLRip] bober100 Скачать
444 | 20
Фильмы (WEB-DL 720p, 1080p) [ 12.17 GB ] Бладшот / Bloodshot [2020 WEBRip 1080p] + [MVO] + [VO] killermax2013 Скачать
241 | 13
Фильмы 2019-2020 [DVDrip, WEB-DLRip, HDrip] (DUB, MVO) [ 754 MB ] Бладшот / Bloodshot [2020 WEB-DLRip] bober100 Скачать
45 | 1
Ultra HD (UHD: 2K, 4K, 8K) — видео сверхвысокой чёткости [ 17.29 GB ] Бладшот / Bloodshot [2020 UHD WEB-DL 2160p] bober100 Скачать
104 | 11


Последний раз редактировалось: bober100 (2020-03-29 04:26), всего редактировалось 2 раз(а)

28-11-2019 20:33  

Отключить всю рекламу на сайте

    Дорогой пользователь! Огромная просьба, поблагодарите релизера, оцените раздачу и оставьте свои комментарий, если Вы скачали Бладшот через торрент бесплатно! Внесите свою лепту в развитие PiratBit!
    Комментировать посты могут только пользователи прошедшие не сложную регистрацию
    Показать сообщения:    

    Бладшот через торрент
    Скачать бесплатно Бладшот
    Бладшот скачать торрент
    Бладшот смотреть онлайн
    Cкачать фильм Бладшот бесплатно
    Бладшот скачать торрент в хорошем качестве
    Бладшот смотреть онлайн бесплатно в хорошем качестве


    Вы не можете начинать темы
    Вы не можете отвечать на сообщения
    Вы не можете редактировать свои сообщения
    Вы не можете удалять свои сообщения
    Вы не можете голосовать в опросах
    Вы не можете прикреплять файлы к сообщениям
    Вы можете скачивать файлы