1 сезон

3 сезон

iTunes

1

iTunes

DUB Netflix

iTunes

13

1 сезон

RePack

30

Deluxe

pack

Легкие деньги

ВАЖНО

ИГРА 18+

pack

RePack

MK11

RePack

jed

RePack

fifa19

RePack

RDR2

RePack

NEED FOR SPEED™ PAYBACK

4 сезон

9 сезон

Бесстыжие 9 сезон

Все сериалы

все сериалы на PB.wtf

RePack

FAR CRY 5

Anonymous, доброй ночи, мы не успеваем до 1 числа собрать деньги на оплату серверов, помогите нам пожалуйста в это трудное время. В качестве благодарности мы отключим Вам всю рекламу на сайте (укажите свой ник в строку Ваше имя)!

×
  
Magnet ссылка

Патриот / Сезон: 1 / Серии: 1-17 из 17 (Николай Бурлак) [2020, Комедия, WEBRip] piratbit.org

Патриот через торрент piratbit.org

Раздают: 4 [ 170 KB/s ]
Размер: 4.98 GB | Добавлен: 1 год 2 мес. назад | Торрент скачан:421 раз
Скачать  

10-03-2020 17:17 Патриот Скачать торрент  

Патриот
Год выпуска: 2020
Страна: Россия
Жанр: Комедия
Продолжительность: ~ 00:25:00 серия
Перевод: Не требуется
Субтитры: отсутствуют

Режиссер: Николай Бурлак



В ролях: Антон Жижин, Алёна Савастова, Анастасия Талызина, Владимир Сычёв, Анастасия Самбурская, Алексей Базанов, Валентина Лукащук, Антон Никушин, Юлия Полынская

Описание: Саня Кучин возвращается из армии в родной городок с большой мечтой сделать свой дом лучшим местом на земле. Саня — честный, деятельный парень с горячим сердцем, уверен, что у него получится исправить всех хулиганов и алкоголиков, а еще — добиться сердца любимой со школьных времен девушки.

Качество: WEBRip
Формат: AVI

Видео: 720x344, 25.000 fps, XviD build 73, 1632 Kbps
Аудио: AC3, 48.0 KHz, 2 ch, 192 kbps
скриншот  скриншот  скриншот  скриншот  скриншот  

General
Complete name : Downloads\Patriot.2020.WEB-DLRip.25Kuzmich\Patriot.s01e01.WEB-DLRip.25Kuzmich.avi
Format : AVI
Format/Info : Audio Video Interleave
File size : 300 MiB
Duration : 22mn 54s
Overall bit rate : 1 834 Kbps
Writing application : VirtualDubMod 1.5.10.3 | www.virtualdub-fr.org || (build 2550/release)
Writing library : VirtualDubMod build 2550/release
Video #0
ID : 0
Format : MPEG-4 Visual
Format profile : Advanced Simple@L5
Format settings, BVOP : 1
Format settings, QPel : No
Format settings, GMC : No warppoints
Format settings, Matrix : Default (MPEG)
Codec ID : XVID
Codec ID/Hint : XviD
Duration : 22mn 54s
Bit rate : 1 632 Kbps
Width : 720 pixels
Height : 344 pixels
Display aspect ratio : 2.093
Frame rate : 25.000 fps
Color space : YUV
Chroma subsampling : 4:2:0
Bit depth : 8 bits
Scan type : Progressive
Compression mode : Lossy
Bits/(Pixel*Frame) : 0.264
Stream size : 267 MiB (89%)
Writing library : XviD 73
Audio #1
ID : 1
Format : AC-3
Format/Info : Audio Coding 3
Mode extension : CM (complete main)
Format settings, Endianness : Big
Codec ID : 2000
Duration : 22mn 54s
Bit rate mode : Constant
Bit rate : 192 Kbps
Channel(s) : 2 channels
Channel positions : Front: L R
Sampling rate : 48.0 KHz
Bit depth : 16 bits
Compression mode : Lossy
Stream size : 31.4 MiB (10%)
Alignment : Split accross interleaves
Interleave, duration : 40 ms (1.00 video frame)
Interleave, preload duration : 500 ms

(1) остановить скачивание,
(2) удалить старый торрент у себя из клиента (старые серии удалять не надо),
(3) скачать новый торрент и запустить его у себя в клиенте вместо старого, при этом указать клиенту путь в старую папку куда и должно происходить скачивание новых серий.
Ваш клиент при этом должен произвести хеширование (проверку) старой папки (если не производит сам - помогите ему сделать это), и будет докачивать только те серии которых у вас ещё нет. Старые серии при этом не удаляются, а продолжают раздаваться!
Eсли вы уже удалили старые серии, то предотвратить повторную закачку старых серий можно, отжав галочку в соответсвующих местах при запуске нового торрента. По возможности, желательно не удалять старые серии как можно дольше чтобы релизёр не столько продолжал раздавать старые серии, а смог сконцентрироваться на новых.
piratbit.org



Скачать Патриот через торрент https://img10.lostpic.net/2020/03/10/0372767a02ee9063fcb458ec176c7212.jpg Скачать фильм Патриот через торрент бесплантно в хорошем качестве Описание: Саня Кучин возвращается из армии в родной городок с большой мечтой сделать свой дом лучшим местом на земле. Саня — честный, ... 9.7 10 27
Торрент: Зарегистрирован [2020-04-02 19:44] · скачан: 421 раз
Статус: √ проверено
Размер: 4.98 GB
Как cкачать? Как скачать Патриот через торрент | UTorrent

% Раздел Тема Автор DL S | L
TNT serials [ 5.99 GB ] Патриот / Сезон: 1 / Серии: 1-17 из 17 [2020 WEBRip-AVC] bober100 Скачать
1 | 0
TNT serials [ 14.89 GB ] Патриот / Сезон: 1 / Серии: 1-17 из 17 [2020 HDTV 1080i] bober100 Скачать
1 | 0
TNT serials [ 12.54 GB ] Патриот / Сезон: 1 / Серии: 1-17 из 17 [2020 WEBRip 1080p] bober100 Скачать
1 | 0
TNT serials [ 8.64 GB ] Патриот / Сезон: 1 / Серии: 1-17 из 17 [2020 WEBRip 720p] bober100 Скачать
3 | 0
Зарубежные сериалы [ 15.01 GB ] Патриот / Patriot / Сезон: 1 / Серии: 1-10 из 10 [2017 WEBRip 720p] [MVO] killermax2013 Скачать
3 | 0
Зарубежные сериалы [ 10.39 GB ] Патриот / Patriot / Сезон 1 / Серии: 1-10 из 10 [2017 WEBRip-AVC] MVO [BaibaKo] GEKADOL Скачать
1 | 0


Последний раз редактировалось: bober100 (2020-04-02 19:43), всего редактировалось 11 раз(а)

28-11-2019 20:33  

Отключить всю рекламу на сайте

16-03-2020 16:00 Патриот Скачать торрент  

Про Ваньку Дурочка ко кого-то. Бред.piratbit.org



20-03-2020 17:13 Патриот Скачать торрент  

Да веселый сериал смотрите и не напрягайтесь.Смесь "Реальных пацанов" и "Жуков".piratbit.org



24-03-2020 17:55 Патриот Скачать торрент  

yrygyla писал(а):

Да веселый сериал смотрите и не напрягайтесь.Смесь "Реальных пацанов" и "Жуков".

да тошнит уже от этих одноклеточных. вовка хай смотрит. у деда тот же уже уровеньpiratbit.org



08-05-2020 15:41 Патриот Скачать торрент  

Всяко ляпше люцьких та лививських сриалов... Упс... а таких_то и немаеpiratbit.org



    Дорогой пользователь! Огромная просьба, поблагодарите релизера, оцените раздачу и оставьте свои комментарий, если Вы скачали Патриот через торрент бесплатно! Внесите свою лепту в развитие PiratBit!
    Комментировать посты могут только пользователи прошедшие не сложную регистрацию
    Показать сообщения:    

    Патриот через торрент
    Скачать бесплатно Патриот
    Патриот скачать торрент
    Патриот смотреть онлайн
    Cкачать фильм Патриот бесплатно
    Патриот скачать торрент в хорошем качестве
    Патриот смотреть онлайн бесплатно в хорошем качестве


    Вы не можете начинать темы
    Вы не можете отвечать на сообщения
    Вы не можете редактировать свои сообщения
    Вы не можете удалять свои сообщения
    Вы не можете голосовать в опросах
    Вы не можете прикреплять файлы к сообщениям
    Вы можете скачивать файлы