1 сезон

3 сезон

iTunes

1

iTunes

DUB Netflix

iTunes

13

1 сезон

RePack

30

Deluxe

pack

Легкие деньги

ВАЖНО

ИГРА 18+

pack

RePack

MK11

RePack

jed

RePack

fifa19

RePack

RDR2

RePack

NEED FOR SPEED™ PAYBACK

4 сезон

9 сезон

Бесстыжие 9 сезон

Все сериалы

все сериалы на PB.wtf

RePack

FAR CRY 5

Anonymous, доброй ночи, мы не успеваем до 1 числа собрать деньги на оплату серверов, помогите нам пожалуйста в это трудное время. В качестве благодарности мы отключим Вам всю рекламу на сайте (укажите свой ник в строку Ваше имя)!

×
  
Magnet ссылка

Патриот / Сезон: 1 / Серии: 1-17 из 17 (Николай Бурлак) [2020, Комедия, HDTV 1080i] piratbit.org

Патриот через торрент piratbit.org

Размер: 14.89 GB | Добавлен: 1 год 2 мес. назад | Торрент скачан:200 раз
Скачать  

12-03-2020 18:12 Патриот Скачать торрент  

Патриот
Год выпуска: 2020
Страна: Россия
Жанр: Комедия
Продолжительность: ~ 00:25:00 серия
Перевод: Не требуется
Субтитры: отсутствуют

Режиссер: Николай Бурлак



В ролях: Антон Жижин, Алёна Савастова, Анастасия Талызина, Владимир Сычёв, Анастасия Самбурская, Алексей Базанов, Валентина Лукащук, Антон Никушин, Юлия Полынская

Описание: Саня Кучин возвращается из армии в родной городок с большой мечтой сделать свой дом лучшим местом на земле. Саня — честный, деятельный парень с горячим сердцем, уверен, что у него получится исправить всех хулиганов и алкоголиков, а еще — добиться сердца любимой со школьных времен девушки.

Качество: HDTV 1080i
Формат: TS

Видео: 1920х1080 (16:9), 25 fps, AVC MPEG-4 (x264), High@L4.0 ~ 5500 kbps avg, 0.135 bit/pixel
Аудио: 48 kHz, MPEG Layer 2, 2 ch, ~ 192 kbps avg
скриншот  скриншот  скриншот  скриншот  

Общее
Идентификатор : 1 (0x1)
Полное имя : D:\Patriot.2020.HDTV.(1080i).ExKinoRay\Patriot.E01.2020.HDTV.(1080i).ExKinoRay.ts
Формат : MPEG-TS
Размер файла : 946 Мбайт
Продолжительность : 22 м. 9 с.
Режим общего битрейта : Переменный
Общий поток : 5969 Кбит/сек

Видео
Идентификатор : 211 (0xD3)
Идентификатор меню : 2207 (0x89F)
Формат : AVC
Формат/Информация : Advanced Video Codec
Профиль формата : High@L4
Параметр CABAC формата : Да
Параметр RefFrames формата : 4 кадра
Идентификатор кодека : 27
Продолжительность : 22 м. 9 с.
Битрейт : 5481 Кбит/сек
Ширина : 1920 пикселей
Высота : 1080 пикселей
Соотношение сторон : 16:9
Частота кадров : 25,000 кадров/сек
Стандарт вещания : Component
Цветовое пространство : YUV
Субдискретизация насыщенности : 4:2:0
Битовая глубина : 8 бит
Тип развёртки : Чересстрочная
Метод сохранения типа развёртки : Раздельные поля
Порядок развёртки : Верхнее поле первое
Бит/(Пиксели*Кадры) : 0.106
Размер потока : 868 Мбайт (92%)
Цветовой диапазон : Limited
Основные цвета : BT.709
Характеристики трансфера : BT.709
Коэффициенты матрицы : BT.709

Аудио
Идентификатор : 221 (0xDD)
Идентификатор меню : 2207 (0x89F)
Формат : MPEG Audio
Версия формата : Version 1
Профиль формата : Layer 2
Идентификатор кодека : 3
Продолжительность : 22 м. 9 с.
Вид битрейта : Постоянный
Битрейт : 192 Кбит/сек
Каналы : 2 канала
Частота : 48,0 КГц
Метод сжатия : С потерями
Задержка видео : -80 мс.
Размер потока : 30,4 Мбайт (3%)
Язык : Russian

(1) остановить скачивание,
(2) удалить старый торрент у себя из клиента (старые серии удалять не надо),
(3) скачать новый торрент и запустить его у себя в клиенте вместо старого, при этом указать клиенту путь в старую папку куда и должно происходить скачивание новых серий.
Ваш клиент при этом должен произвести хеширование (проверку) старой папки (если не производит сам - помогите ему сделать это), и будет докачивать только те серии которых у вас ещё нет. Старые серии при этом не удаляются, а продолжают раздаваться!
Eсли вы уже удалили старые серии, то предотвратить повторную закачку старых серий можно, отжав галочку в соответсвующих местах при запуске нового торрента. По возможности, желательно не удалять старые серии как можно дольше чтобы релизёр не столько продолжал раздавать старые серии, а смог сконцентрироваться на новых.

piratbit.org



Скачать Патриот через торрент https://img10.lostpic.net/2020/03/10/0372767a02ee9063fcb458ec176c7212.jpg Скачать фильм Патриот через торрент бесплантно в хорошем качестве Описание: Саня Кучин возвращается из армии в родной городок с большой мечтой сделать свой дом лучшим местом на земле. Саня — честный, ... 9.9 10 15
Торрент: Зарегистрирован [2020-04-02 18:48] · скачан: 200 раз
Статус: √ проверено
Размер: 14.89 GB
Как cкачать? Как скачать Патриот через торрент | UTorrent

% Раздел Тема Автор DL S | L
TNT serials [ 4.98 GB ] Патриот / Сезон: 1 / Серии: 1-17 из 17 [2020 WEBRip] bober100 Скачать
3 | 0
TNT serials [ 5.99 GB ] Патриот / Сезон: 1 / Серии: 1-17 из 17 [2020 WEBRip-AVC] bober100 Скачать
1 | 0
TNT serials [ 12.54 GB ] Патриот / Сезон: 1 / Серии: 1-17 из 17 [2020 WEBRip 1080p] bober100 Скачать
1 | 0
TNT serials [ 8.64 GB ] Патриот / Сезон: 1 / Серии: 1-17 из 17 [2020 WEBRip 720p] bober100 Скачать
1 | 0
Зарубежные сериалы [ 15.01 GB ] Патриот / Patriot / Сезон: 1 / Серии: 1-10 из 10 [2017 WEBRip 720p] [MVO] killermax2013 Скачать
2 | 0
Зарубежные сериалы [ 10.39 GB ] Патриот / Patriot / Сезон 1 / Серии: 1-10 из 10 [2017 WEBRip-AVC] MVO [BaibaKo] GEKADOL Скачать
1 | 0

28-11-2019 20:33  

Отключить всю рекламу на сайте

    Дорогой пользователь! Огромная просьба, поблагодарите релизера, оцените раздачу и оставьте свои комментарий, если Вы скачали Патриот через торрент бесплатно! Внесите свою лепту в развитие PiratBit!
    Комментировать посты могут только пользователи прошедшие не сложную регистрацию
    Показать сообщения:    

    Патриот через торрент
    Скачать бесплатно Патриот
    Патриот скачать торрент
    Патриот смотреть онлайн
    Cкачать фильм Патриот бесплатно
    Патриот скачать торрент в хорошем качестве
    Патриот смотреть онлайн бесплатно в хорошем качестве


    Вы не можете начинать темы
    Вы не можете отвечать на сообщения
    Вы не можете редактировать свои сообщения
    Вы не можете удалять свои сообщения
    Вы не можете голосовать в опросах
    Вы не можете прикреплять файлы к сообщениям
    Вы можете скачивать файлы