Ссылка на приватное зеркало нашего сайта всего за 1$. Внимание количество ограничено!!!

2 сезон

iTunes

1 сезон

1

iTunes

iTunes

iTunes

1 сезон

RePack

30

ИГРА 18+

pack

ВАЖНО

!!Акция!!

Alien_RageХит недели

RePack

MK11
pack

Забери бонус

RePack

jed

!!Акция!!

Alien_Rage

RePack

fifa19

RePack

Assassins Creed: Odyssey

RePack

NEED FOR SPEED™ PAYBACK

4 сезон

9 сезон

Бесстыжие 9 сезон

Все сериалы

все сериалы на PB.wtf

RePack

FAR CRY 5
  

Город насилия / Citta violenta (Серджио Соллима) [1970, боевик, криминал, триллер, BDRip-AVC by msltel] MVO piratbit.org

Город насилия через торрент piratbit.org

Размер: 2.3 GB | Добавлен: 7 мес. назад | Торрент скачан:5 раз
Скачать  

15-03-2020 07:03 Город насилия Скачать торрент  

Название: Город насилия
Оригинальное название: Citta violenta
Год выпуска: 1970
Страна: Франция, Италия
Жанр: боевик, криминал, триллер
Продолжительность: 1:44:42
Перевод: профессиональный многоголосый
Режиссер: Серджио Соллима
В ролях: Чарльз Бронсон, Джилл Айрленд, Мишель Константен, Телли Савалас, Умберто Орсини, Рэй Саундерс, Бенжамин Лев, Питер Дэйн, Джордж Савалас, Берил Сальваторе

О фильме: После ряда кровавых преступлений и непонятных подстав профессиональный стрелок Джефф начинает подозревать в злом умысле свою прекрасную подружку. Она прячется от Джеффа в Новом Орлеане, но тот берет её след, который выводит его на крестного отца мощной криминальной группировки. Босс однозначно даёт Джеффу понять, что хочет видеть его в рядах своей организации, а когда тот отказывается — объявляет ему войну. Но Джефф не собирается сдаваться, и теперь в "Городе насилия" каждый шаг похож на выстрел пули. А любовь подобна заряженному пистолету...



Качество: BDRip-AVC
Формат: MKV
Видео: MPEG-4 AVC, 2762 Кбит/с, 1024x436, 25 кадр/с
Аудио 1: русский, AC3, 192 kbps, 2 ch, 48 kHz [закадровый многоголосый, DVD Магия]
Аудио 2: итальянский, AC3, 192 kbps, 2 ch, 48 kHz [оригинал]
Субтитры 1: итальянские
Субтитры 2: английские
Главы/чаптеры
Общее
Уникальный идентификатор : 217847682605056586980901497325701655506 (0xA3E3F0019A1C426187B9B256FD796BD2)
Полное имя : D:\Video\Город насилия.1970.BDRip-AVC by msltel.mkv
Формат : Matroska
Версия формата : Version 4
Размер файла : 2,30 Гбайт
Продолжительность : 1 ч. 44 м.
Общий поток : 3148 Кбит/сек
Название фильма : Rip by msltel
Дата кодирования : UTC 2020-03-15 02:10:53
Программа кодирования : mkvmerge v8.2.0 ('World of Adventure') 64bit
Библиотека кодирования : libebml v1.3.1 + libmatroska v1.4.2

Видео
Идентификатор : 1
Формат : AVC
Формат/Информация : Advanced Video Codec
Профиль формата : High@L4.1
Настройки формата : CABAC / 14 Ref Frames
Параметр CABAC формата : Да
Параметр RefFrames формата : 14 кадров
Идентификатор кодека : V_MPEG4/ISO/AVC
Продолжительность : 1 ч. 44 м.
Битрейт : 2762 Кбит/сек
Ширина : 1024 пикселя
Высота : 436 пикселей
Соотношение сторон : 2,35:1
Режим частоты кадров : Постоянный
Частота кадров : 25,000 кадров/сек
Цветовое пространство : YUV
Субдискретизация насыщенности : 4:2:0
Битовая глубина : 8 бит
Тип развёртки : Прогрессивная
Бит/(Пиксели*Кадры) : 0.247
Размер потока : 2,02 Гбайт (88%)
Библиотека кодирования : x264 core 159 r2991 1771b55
Настройки программы : cabac=1 / ref=14 / deblock=1:-2:-2 / analyse=0x3:0x113 / me=umh / subme=11 / psy=1 / psy_rd=1.00:0.15 / mixed_ref=1 / me_range=32 / chroma_me=1 / trellis=2 / 8x8dct=1 / cqm=0 / deadzone=21,11 / fast_pskip=0 / chroma_qp_offset=-3 / threads=6 / lookahead_threads=1 / sliced_threads=0 / nr=0 / decimate=1 / interlaced=0 / bluray_compat=0 / constrained_intra=0 / bframes=10 / b_pyramid=2 / b_adapt=2 / b_bias=0 / direct=1 / weightb=1 / open_gop=0 / weightp=2 / keyint=240 / keyint_min=24 / scenecut=40 / intra_refresh=0 / rc_lookahead=40 / rc=crf / mbtree=1 / crf=19.0 / qcomp=0.60 / qpmin=0 / qpmax=69 / qpstep=4 / vbv_maxrate=50000 / vbv_bufsize=62500 / crf_max=0.0 / nal_hrd=none / filler=0 / ip_ratio=1.40 / aq=1:1.00
Язык : English
Default : Да
Forced : Нет

Аудио #1
Идентификатор : 2
Формат : AC-3
Формат/Информация : Audio Coding 3
Коммерческое название : Dolby Digital
Идентификатор кодека : A_AC3
Продолжительность : 1 ч. 44 м.
Вид битрейта : Постоянный
Битрейт : 192 Кбит/сек
Каналы : 2 канала
ChannelLayout : L R
Частота : 48,0 КГц
Частота кадров : 31,250 кадров/сек (1536 SPF)
Метод сжатия : С потерями
Размер потока : 144 Мбайт (6%)
Заголовок : MVO DVD Магия
Язык : Russian
ServiceKind/String : Complete Main
Default : Да
Forced : Нет

Аудио #2
Идентификатор : 3
Формат : AC-3
Формат/Информация : Audio Coding 3
Коммерческое название : Dolby Digital
Идентификатор кодека : A_AC3
Продолжительность : 1 ч. 44 м.
Вид битрейта : Постоянный
Битрейт : 192 Кбит/сек
Каналы : 2 канала
ChannelLayout : L R
Частота : 48,0 КГц
Частота кадров : 31,250 кадров/сек (1536 SPF)
Метод сжатия : С потерями
Размер потока : 144 Мбайт (6%)
Заголовок : original
Язык : English
ServiceKind/String : Complete Main
Default : Нет
Forced : Нет

Текст #1
Идентификатор : 4
Формат : UTF-8
Идентификатор кодека : S_TEXT/UTF8
Идентификатор кодека/Информация : UTF-8 Plain Text
Продолжительность : 1 ч. 33 м.
Битрейт : 36 бит/сек
ElementCount : 590
Размер потока : 25,1 Кбайт (0%)
Заголовок : итальянские
Язык : Italian
Default : Нет
Forced : Нет

Текст #2
Идентификатор : 5
Формат : UTF-8
Идентификатор кодека : S_TEXT/UTF8
Идентификатор кодека/Информация : UTF-8 Plain Text
Продолжительность : 1 ч. 33 м.
Битрейт : 38 бит/сек
ElementCount : 720
Размер потока : 26,6 Кбайт (0%)
Заголовок : английские
Язык : English
Default : Нет
Forced : Нет

Меню
00:00:00.000 : :Chapter 1
00:03:22.520 : :Chapter 2
00:12:00.000 : :Chapter 3
00:17:53.160 : :Chapter 4
00:22:30.520 : :Chapter 5
00:28:16.240 : :Chapter 6
00:42:48.360 : :Chapter 7
00:48:41.280 : :Chapter 8
00:56:02.520 : :Chapter 9
01:03:43.880 : :Chapter 10
01:06:59.200 : :Chapter 11
01:15:58.400 : :Chapter 12
01:22:11.560 : :Chapter 13
01:29:44.920 : :Chapter 14
01:33:55.840 : :Chapter 15
01:38:28.760 : :Chapter 16
piratbit.org



Скачать Город насилия через торрент https://c.radikal.ru/c39/2003/0c/06579af79d32.jpg Скачать фильм Город насилия через торрент бесплантно в хорошем качестве О фильме: После ряда кровавых преступлений и непонятных подстав стрелок Джефф начинает подозревать в злом умысле свою ... 10 10 1
Торрент: Зарегистрирован [2020-03-15 07:03] · скачан: 5 раз
Статус: √ проверено
Размер: 2.3 GB
Как cкачать? Как скачать Город насилия через торрент | qTorrent

% Раздел Тема Автор DL S | L
Классика зарубежного кино [ 11.71 GB ] Город насилия / Citta violenta [1970 BDRip 1080p by msltel] MVO msltel Скачать
1 | 0
Классика зарубежного кино [ 4.22 GB ] Город насилия / Citta violenta [1970 BDRip 720p by msltel] MVO msltel Скачать
1 | 0

28-11-2019 20:33  

Отключить всю рекламу на сайте

    Дорогой пользователь! Огромная просьба, поблагодарите релизера, оцените раздачу и оставьте свои комментарий, если Вы скачали Город насилия через торрент бесплатно! Внесите свою лепту в развитие PiratBit!
    Комментировать посты могут только пользователи прошедшие не сложную регистрацию
    Показать сообщения:    

    Город насилия через торрент
    Скачать бесплатно Город насилия
    Город насилия скачать торрент
    Город насилия смотреть онлайн
    Cкачать фильм Город насилия бесплатно
    Город насилия скачать торрент в хорошем качестве
    Город насилия смотреть онлайн бесплатно в хорошем качестве


    Вы не можете начинать темы
    Вы не можете отвечать на сообщения
    Вы не можете редактировать свои сообщения
    Вы не можете удалять свои сообщения
    Вы не можете голосовать в опросах
    Вы не можете прикреплять файлы к сообщениям
    Вы можете скачивать файлы