Ссылка на приватное зеркало нашего сайта всего за 1$. Внимание количество ограничено!!!

2 сезон

iTunes

1 сезон

1

iTunes

iTunes

iTunes

1 сезон

RePack

30

ИГРА 18+

pack

ВАЖНО

!!Акция!!

Alien_RageХит недели

RePack

MK11
pack

Забери бонус

RePack

jed

!!Акция!!

Alien_Rage

RePack

fifa19

RePack

Assassins Creed: Odyssey

RePack

NEED FOR SPEED™ PAYBACK

4 сезон

9 сезон

Бесстыжие 9 сезон

Все сериалы

все сериалы на PB.wtf

RePack

FAR CRY 5
  

Чемпион / Champion (Марк Робсон) [1949, фильм-нуар, драма, спорт, BDRip-AVC by msltel] 2 x DVO piratbit.org

Чемпион через торрент piratbit.org

Размер: 3.16 GB | Добавлен: 7 мес. назад | Торрент скачан:0 раз
Скачать  

18-03-2020 05:55 Чемпион Скачать торрент  

Название: Чемпион
Оригинальное название: Champion
Год выпуска: 1949
Страна: США
Жанр: фильм-нуар, драма, спорт
Продолжительность: 01:39:11
Перевод: профессиональный двухголосый
Режиссер: Марк Робсон
В ролях: Кирк Дуглас, Мэрилин Максвелл, Артур Кеннеди, Пол Стюарт, Рут Роман, Лола Олбрайт, Луис Ван Рутен, Хэрри Шэннон, Джон Дэхейм, Ралф Сэнфорд, Эстер Хауард

О фильме: По пути в Лос-Анджелес Мидж Келли со своим братом-калекой Кони оказывается в Канзас-сити. Они пытаются устроиться разносчиками лимонада, но, поссорившись с хозяином заведения, Мидж разбивает 6 ящиков с бутылками. Чтобы расплатиться за нанесённый ущерб, он соглашается выйти на ринг вместо травмированного боксёра. Дебют на ринге не приносит Миджу победу, однако его замечает известный менеджер Томми Хэйли. Он обещает ввести парня в большой спорт. Начинается стремительный взлёт его боксёрской карьеры. Но, соблазнённый толпами поклонников, деньгами и женщинами, Мидж забывает о том, кто его настоящие друзья... Экранизация рассказа Ринга Ларднера.



Качество: BDRip-AVC
Формат: MKV
Видео: MPEG-4 AVC, 3985 Кбит/с, 788x576
Аудио 1: русский, AC3, 192 kbps, 2 ch, 48 kHz [закадровый двухголосый, New Dream Media]
Аудио 2: русский, AC3, 192 kbps, 2 ch, 48 kHz [закадровый двухголосый, Светла / Film Prestige]
Аудио 3: английский, AC3, 192 kbps, 1 ch, 48 kHz [оригинал]
Субтитры: русские
Главы/чаптеры
Общее
Уникальный идентификатор : 174693288806994468745237469490674045583 (0x836CB41F1BF0A869A2B9B0B30D22928F)
Полное имя : D:\Video\Чемпион.1949.BDRip-AVC by msltel.mkv
Формат : Matroska
Версия формата : Version 4
Размер файла : 3,16 Гбайт
Продолжительность : 1 ч. 39 м.
Общий поток : 4563 Кбит/сек
Название фильма : Rip by msltel
Дата кодирования : UTC 2020-03-18 02:13:59
Программа кодирования : mkvmerge v8.2.0 ('World of Adventure') 64bit
Библиотека кодирования : libebml v1.3.1 + libmatroska v1.4.2

Видео
Идентификатор : 1
Формат : AVC
Формат/Информация : Advanced Video Codec
Профиль формата : High@L4.1
Настройки формата : CABAC / 14 Ref Frames
Параметр CABAC формата : Да
Параметр RefFrames формата : 14 кадров
Идентификатор кодека : V_MPEG4/ISO/AVC
Продолжительность : 1 ч. 39 м.
Битрейт : 3985 Кбит/сек
Ширина : 788 пикселей
Высота : 576 пикселей
Соотношение сторон : 4:3
Режим частоты кадров : Постоянный
Частота кадров : 23,976 (24000/1001) кадра/сек
Цветовое пространство : YUV
Субдискретизация насыщенности : 4:2:0
Битовая глубина : 8 бит
Тип развёртки : Прогрессивная
Бит/(Пиксели*Кадры) : 0.366
Размер потока : 2,76 Гбайт (87%)
Библиотека кодирования : x264 core 159 r2991 1771b55
Настройки программы : cabac=1 / ref=14 / deblock=1:-2:-2 / analyse=0x3:0x113 / me=umh / subme=11 / psy=1 / psy_rd=1.00:0.15 / mixed_ref=1 / me_range=32 / chroma_me=1 / trellis=2 / 8x8dct=1 / cqm=0 / deadzone=21,11 / fast_pskip=0 / chroma_qp_offset=-3 / threads=6 / lookahead_threads=1 / sliced_threads=0 / nr=0 / decimate=1 / interlaced=0 / bluray_compat=0 / constrained_intra=0 / bframes=16 / b_pyramid=2 / b_adapt=2 / b_bias=0 / direct=1 / weightb=1 / open_gop=0 / weightp=2 / keyint=230 / keyint_min=23 / scenecut=40 / intra_refresh=0 / rc_lookahead=40 / rc=crf / mbtree=1 / crf=20.0 / qcomp=0.60 / qpmin=0 / qpmax=69 / qpstep=4 / vbv_maxrate=50000 / vbv_bufsize=62500 / crf_max=0.0 / nal_hrd=none / filler=0 / ip_ratio=1.40 / aq=1:1.00
Язык : English
Default : Да
Forced : Нет

Аудио #1
Идентификатор : 2
Формат : AC-3
Формат/Информация : Audio Coding 3
Коммерческое название : Dolby Digital
Идентификатор кодека : A_AC3
Продолжительность : 1 ч. 39 м.
Вид битрейта : Постоянный
Битрейт : 192 Кбит/сек
Каналы : 2 канала
ChannelLayout : L R
Частота : 48,0 КГц
Частота кадров : 31,250 кадров/сек (1536 SPF)
Метод сжатия : С потерями
Размер потока : 136 Мбайт (4%)
Заголовок : DVO New Dream Media
Язык : Russian
ServiceKind/String : Complete Main
Default : Да
Forced : Нет

Аудио #2
Идентификатор : 3
Формат : AC-3
Формат/Информация : Audio Coding 3
Коммерческое название : Dolby Digital
Идентификатор кодека : A_AC3
Продолжительность : 1 ч. 39 м.
Вид битрейта : Постоянный
Битрейт : 192 Кбит/сек
Каналы : 2 канала
ChannelLayout : L R
Частота : 48,0 КГц
Частота кадров : 31,250 кадров/сек (1536 SPF)
Метод сжатия : С потерями
Размер потока : 136 Мбайт (4%)
Заголовок : DVO Светла / Film Prestige
Язык : Russian
ServiceKind/String : Complete Main
Default : Нет
Forced : Нет

Аудио #3
Идентификатор : 4
Формат : AC-3
Формат/Информация : Audio Coding 3
Коммерческое название : Dolby Digital
Идентификатор кодека : A_AC3
Продолжительность : 1 ч. 39 м.
Вид битрейта : Постоянный
Битрейт : 192 Кбит/сек
Каналы : 1 канал
ChannelLayout : C
Частота : 48,0 КГц
Частота кадров : 31,250 кадров/сек (1536 SPF)
Метод сжатия : С потерями
Размер потока : 136 Мбайт (4%)
Заголовок : original
Язык : English
ServiceKind/String : Complete Main
Default : Нет
Forced : Нет

Текст
Идентификатор : 5
Формат : UTF-8
Идентификатор кодека : S_TEXT/UTF8
Идентификатор кодека/Информация : UTF-8 Plain Text
Продолжительность : 1 ч. 37 м.
Битрейт : 93 бит/сек
ElementCount : 1328
Размер потока : 67,1 Кбайт (0%)
Заголовок : русские
Язык : Russian
Default : Нет
Forced : Нет

Меню
00:00:00.000 : :Chapter 1
00:12:40.676 : :Chapter 2
00:23:04.132 : :Chapter 3
00:37:47.390 : :Chapter 4
00:48:59.603 : :Chapter 5
00:59:37.824 : :Chapter 6
01:09:17.695 : :Chapter 7
01:22:04.419 : :Chapter 8
01:39:09.360 : :Chapter 9
piratbit.org



Скачать Чемпион через торрент https://i111.fastpic.ru/big/2020/0318/a3/de68cf930583cdddaa8f5d94155c9aa3.jpg Скачать фильм Чемпион через торрент бесплантно в хорошем качестве О фильме: По пути в Лос-Анджелес Мидж Келли со своим братом-калекой Кони оказывается в Канзас-сити. Они пытаются устроиться разносчиками ... 5 10 1
Info! Золотая раздача, скачанное не засчитывается.
Торрент: Зарегистрирован [2020-03-18 05:55] · скачан: 0 раз
Статус: √ проверено
Размер: 3.16 GB
Как cкачать? Как скачать Чемпион через торрент | qTorrent

% Раздел Тема Автор DL S | L
Классика зарубежного кино [ 12.66 GB ] Чемпион / Champion [1949 фильм-нуар BDRip 1080p by msltel] 2 x DVO msltel Скачать
1 | 0
Классика зарубежного кино [ 5.31 GB ] Чемпион / Champion [1949 фильм-нуар BDRip 720p by msltel] 2 x DVO msltel Скачать
1 | 0

28-11-2019 20:33  

Отключить всю рекламу на сайте

    Дорогой пользователь! Огромная просьба, поблагодарите релизера, оцените раздачу и оставьте свои комментарий, если Вы скачали Чемпион через торрент бесплатно! Внесите свою лепту в развитие PiratBit!
    Комментировать посты могут только пользователи прошедшие не сложную регистрацию
    Показать сообщения:    

    Чемпион через торрент
    Скачать бесплатно Чемпион
    Чемпион скачать торрент
    Чемпион смотреть онлайн
    Cкачать фильм Чемпион бесплатно
    Чемпион скачать торрент в хорошем качестве
    Чемпион смотреть онлайн бесплатно в хорошем качестве


    Вы не можете начинать темы
    Вы не можете отвечать на сообщения
    Вы не можете редактировать свои сообщения
    Вы не можете удалять свои сообщения
    Вы не можете голосовать в опросах
    Вы не можете прикреплять файлы к сообщениям
    Вы можете скачивать файлы