Ссылка на приватное зеркало всего за 1$. Внимание количество ограничено!!!

iTunes

iTunes

iTunes

1

iTunes

iTunes

iTunes

iTunes

iTunes

30
pack

Новость дня

ВАЖНО

!!Акция!!

Alien_RageХит недели

RePack

Resident Evil 21

ИГРА 18+

pack

RePack

jed

!!Акция!!

Alien_Rage

RePack

fifa19

RePack

Assassins Creed: Odyssey

RePack

NEED FOR SPEED™ PAYBACK

4 сезон

9 сезон

Бесстыжие 9 сезон

Все сериалы

все сериалы на PB.wtf

RePack

FAR CRY 5
  

В клетке / Сезон: 1 / Серии: 1-10 из 10 (Артём Аксененко) [2019, Драма, криминал, спорт, HDTV 1080i] piratbit.org

В клетке через торрент piratbit.org

Раздают: 6 [ 2 MB/s ]
Размер: 14.63 GB | Добавлен: 7 д. назад | Торрент скачан:15 раз
Скачать  

18-03-2020 06:43 В клетке Скачать торрент  

В клетке Год выпуска: 2019
Страна: Россия
Жанр: Драма, криминал, спорт
Продолжительность: ~ 00:50:00 серия
Субтитры: отсутствуют

Режиссер: Артём Аксененко

rating

В ролях: Павел Прилучный, Владимир Епифанцев, Артур Ваха, Агата Муцениеце, Екатерина Маликова, Наталья Парашкина, Даниил Воробьёв, Лаура Кеосаян, Алексей Ильин

Описание: В Калининград одновременно возвращаются отец и сын Евдокимовы: Сергей, по прозвищу Волчок вышел после семи лет тюрьмы по 228 статье; его отец, Алексей Евдокимов, сбежал в родной город от проблем в Москве. Сергей, вернувшись домой, не понимает, как жить дальше - он обнаруживает что мать окончательно спилась, а бывшая любовь Ольга его уже и не ждала. Кажется, только младший брат Женя счастлив видеть Волчка. А еще Дилер - бывший одноклассник, который за те несколько лет, что Сергей провел в колонии, поднялся от простого барыги до мафиози средней руки. С момента встречи отца и сына начнётся история о преодолении семейных травм, боли и зависимости. Им предстоит выбирать между долгом и любовью, между жизнью и смертью.

Качество: HDTV 1080i
Формат: TS

Видео: 1920х1080 (16:9), 25 fps, AVC MPEG-4 (x264), High@L4.0 ~ 3400 kbps avg, 0.064 bit/pixel
Аудио: 48 kHz, MPEG Layer 2, 2 ch, ~ 192 kbps avg
скриншот  скриншот  скриншот  скриншот  

Общее
Идентификатор : 1 (0x1)
Полное имя : D:\V.kletke.2019.HDTV.(1080i).ExKinoRay\V.kletke.E01.2019.HDTV.(1080i).ExKinoRay.ts
Формат : MPEG-TS
Размер файла : 1,28 Гбайт
Продолжительность : 49 м. 29 с.
Режим общего битрейта : Переменный
Общий поток : 3689 Кбит/сек

Видео
Идентификатор : 211 (0xD3)
Идентификатор меню : 1 (0x1)
Формат : AVC
Формат/Информация : Advanced Video Codec
Профиль формата : Main@L4
Параметр CABAC формата : Да
Параметр RefFrames формата : 1 кадр
Параметр GOP формата : M=1, N=15
Идентификатор кодека : 27
Продолжительность : 49 м. 28 с.
Битрейт : 3313 Кбит/сек
Ширина : 1920 пикселей
Высота : 1080 пикселей
Соотношение сторон : 16:9
Частота кадров : 25,000 кадров/сек
Цветовое пространство : YUV
Субдискретизация насыщенности : 4:2:0
Битовая глубина : 8 бит
Тип развёртки : Прогрессивная
Бит/(Пиксели*Кадры) : 0.064
Размер потока : 1,15 Гбайт (90%)

Аудио
Идентификатор : 221 (0xDD)
Идентификатор меню : 1 (0x1)
Формат : MPEG Audio
Версия формата : Version 1
Профиль формата : Layer 2
Идентификатор кодека : 3
Продолжительность : 49 м. 28 с.
Вид битрейта : Постоянный
Битрейт : 192 Кбит/сек
Каналы : 2 канала
Частота : 48,0 КГц
Метод сжатия : С потерями
Размер потока : 68,0 Мбайт (5%)
Язык : Russian

При каждом добавлении создаётся новый торрент. Чтобы начать докачку новой серии, пользователям необходимо сделать следующее:
- остановить скачивание;
- удалить старый торрент у себя из клиента (старые серии удалять не надо);
- скачать новый торрент и запустить его у себя в клиенте вместо старого, при этом указать клиенту путь в старую папку, куда и должно происходить скачивание новых серий.
piratbit.org



Скачать В клетке через торрент https://i106.fastpic.ru/big/2019/0613/bd/5b25c963d9c9fa56f4ff7255e18864bd.jpg Скачать фильм В клетке через торрент бесплантно в хорошем качестве Описание: В Калининград одновременно возвращаются отец и сын Евдокимовы: Сергей, по прозвищу Волчок вышел после семи лет тюрьмы по 228 ... 10 10 8
Торрент: Зарегистрирован [2020-03-26 00:32] · скачан: 15 раз
Статус: √ проверено
Размер: 14.63 GB
Как cкачать? Как скачать В клетке через торрент | qTorrent

% Раздел Тема Автор DL S | L
Наши сериалы [ 6.04 GB ] В клетке / Сезон: 1 / Серии: 1-10 из 10 [2019 WEB-DLRip] bober100 Скачать
6 | 1
Наши сериалы [ 6.07 GB ] В клетке / Сезон: 1 / Серии: 1-10 из 10 [2019 WEBRip-AVC] bober100 Скачать
7 | 0
Наши сериалы [ 22.59 GB ] В клетке / Сезон: 1 / Серии: 1-10 из 10 [2019 WEB-DL 1080p] bober100 Скачать
1 | 0
Наши сериалы [ 14.36 GB ] В клетке / Сезон: 1 / Серии: 1-10 из 10 [2019 WEB-DL 720p] bober100 Скачать
2 | 3

28-11-2019 20:33  

Отключить всю рекламу на сайте

    Дорогой пользователь! Огромная просьба, поблагодарите релизера, оцените раздачу и оставьте свои комментарий, если Вы скачали В клетке через торрент бесплатно! Внесите свою лепту в развитие PiratBit!
    Комментировать посты могут только пользователи прошедшие не сложную регистрацию
    Показать сообщения:    

    В клетке через торрент
    Скачать бесплатно В клетке
    В клетке скачать торрент
    В клетке смотреть онлайн
    Cкачать фильм В клетке бесплатно
    В клетке скачать торрент в хорошем качестве
    В клетке смотреть онлайн бесплатно в хорошем качестве


    Вы не можете начинать темы
    Вы не можете отвечать на сообщения
    Вы не можете редактировать свои сообщения
    Вы не можете удалять свои сообщения
    Вы не можете голосовать в опросах
    Вы не можете прикреплять файлы к сообщениям
    Вы можете скачивать файлы