Ссылка на приватное зеркало всего за 1$. Внимание количество ограничено!!!

iTunes

iTunes

iTunes

1

iTunes

iTunes

iTunes

iTunes

iTunes

30
pack

Новость дня

ВАЖНО

!!Акция!!

Alien_RageХит недели

RePack

Resident Evil 21

ИГРА 18+

pack

RePack

jed

!!Акция!!

Alien_Rage

RePack

fifa19

RePack

Assassins Creed: Odyssey

RePack

NEED FOR SPEED™ PAYBACK

4 сезон

9 сезон

Бесстыжие 9 сезон

Все сериалы

все сериалы на PB.wtf

RePack

FAR CRY 5
  

Чёрный понедельник / Black Monday / Сезон: 2 / Серии: 1-4 из 10 (Пэймэн Бенц) [2020, Комедия, WEB-DL 720p] MVO [AlexFilm] piratbit.org

Чёрный понедельник через торрент piratbit.org

Качают: 1 [ 0 KB/s ]
Размер: 5.21 GB | Добавлен: 6 д. назад | Торрент скачан:1 раз
Скачать  

19-03-2020 19:40 Чёрный понедельник Скачать торрент  

Чёрный понедельник | Black Monday
Год выпуска: 2020
Страна: США
Жанр: Комедия
Продолжительность: ~ 00:32:00
Перевод: Профессиональный (многоголосый закадровый) | AlexFilm
Субтитры: Английские (Full, SDH)

Режиссёр: Пэймэн Бенц

В ролях: Дон Чидл, Эндрю Рэннеллс, Пол Шир, Реджина Холл, Юджин Кордеро, Кадим Хардисон, Курт Браунолер, Эдвин Гэйджиано

Описание: После «Черного понедельника» — 19 октября 1987 года, когда произошел крупнейший обвал фондового рынка в истории Уолл-стрит, группа финансистов-любителей находит способ заработать на этом, в одночасье превратив свою унылую жизнь в сплошной праздник.

rating


Качество: WEB-DL 720p
Формат: MKV

Видео: MPEG-4 AVC, ~ 5500 Кбит/с, 1280x720
Аудио 1: 48 kHz, AC3, 6 ch, 384 kbps | AlexFilm
Аудио 2: 48 kHz, AC3, 6 ch, 640 kbps | Original
скриншот  скриншот  скриншот  скриншот  скриншот  

Общее
Уникальный идентификатор : 192434544926174458351194055542467240648 (0x90C58B94E66C1CBAA8592B5E45D0A2C8)
Полное имя : D:\Black.Monday_s02_720p_AlexFilm\Black.Monday.s02e01.WEB-DL.720p_EniaHD.mkv
Формат : Matroska
Версия формата : Version 4 / Version 2
Размер файла : 1,46 Гбайт
Продолжительность : 31 м. 50 с.
Общий поток : 6575 Кбит/сек
Название фильма : Black Monday 02x01 (Mixie-Dixie) - release by Kastiel@EniaHD
Дата кодирования : UTC 2020-03-19 19:25:52
Программа кодирования : mkvmerge v18.0.0 ('Apricity') 64-bit
Библиотека кодирования : libebml v1.3.5 + libmatroska v1.4.8

Видео
Идентификатор : 1
Формат : AVC
Формат/Информация : Advanced Video Codec
Профиль формата : High@L3.1
Параметр CABAC формата : Да
Параметр RefFrames формата : 4 кадра
Идентификатор кодека : V_MPEG4/ISO/AVC
Продолжительность : 31 м. 50 с.
Вид битрейта : Постоянный
Битрейт : 5420 Кбит/сек
Номинальный битрейт : 6000 Кбит/сек
Ширина : 1280 пикселей
Высота : 720 пикселей
Соотношение сторон : 16:9
Режим частоты кадров : Постоянный
Частота кадров : 23,976 (24000/1001) кадра/сек
Цветовое пространство : YUV
Субдискретизация насыщенности : 4:2:0
Битовая глубина : 8 бит
Тип развёртки : Прогрессивная
Бит/(Пиксели*Кадры) : 0.245
Размер потока : 1,21 Гбайт (82%)
Default : Да
Forced : Нет
Цветовой диапазон : Limited
Основные цвета : BT.709
Характеристики трансфера : BT.709
Коэффициенты матрицы : BT.709

Аудио #1
Идентификатор : 2
Формат : AC-3
Формат/Информация : Audio Coding 3
Расширение режима : CM (complete main)
Параметр Endianness формата : Big
Идентификатор кодека : A_AC3
Продолжительность : 31 м. 50 с.
Вид битрейта : Постоянный
Битрейт : 384 Кбит/сек
Каналы : 6 каналов
Расположение каналов : Front: L C R, Side: L R, LFE
Частота : 48,0 КГц
Частота кадров : 31,250 кадров/сек (1536 spf)
Метод сжатия : С потерями
Размер потока : 87,5 Мбайт (6%)
Заголовок : DD5.1 AlexFilm
Язык : Russian
Default : Да
Forced : Нет

Аудио #2
Идентификатор : 3
Формат : AC-3
Формат/Информация : Audio Coding 3
Расширение режима : CM (complete main)
Параметр Endianness формата : Big
Идентификатор кодека : A_AC3
Продолжительность : 31 м. 50 с.
Вид битрейта : Постоянный
Битрейт : 640 Кбит/сек
Каналы : 6 каналов
Расположение каналов : Front: L C R, Side: L R, LFE
Частота : 48,0 КГц
Частота кадров : 31,250 кадров/сек (1536 spf)
Метод сжатия : С потерями
Размер потока : 146 Мбайт (10%)
Заголовок : DD5.1 Original
Язык : English
Default : Нет
Forced : Нет

Текст #1
Идентификатор : 4
Формат : UTF-8
Идентификатор кодека : S_TEXT/UTF8
Идентификатор кодека/Информация : UTF-8 Plain Text
Язык : English
Default : Нет
Forced : Нет

Текст #2
Идентификатор : 5
Формат : UTF-8
Идентификатор кодека : S_TEXT/UTF8
Идентификатор кодека/Информация : UTF-8 Plain Text
Заголовок : SDH
Язык : English
Default : Нет
Forced : Нет

Когда раздача ведётся путём добавления новых серий, при каждом добавлении создётся новый торрент. Чтобы начать докачку новой серии, пользователям необходимо сделать следующее:
(1) остановить скачивание,
(2) удалить старый торрент у себя из клиента (старые серии удалять не надо),
(3) скачать новый торрент и запустить его у себя в клиенте вместо старого, при этом указать клиенту путь в старую папку, куда и должно происходить скачивание новых серий.
Ваш клиент при этом должен произвести хеширование (проверку) старой папки (если не производит сам - помогите ему сделать это), и будет докачивать только те серии, которых у вас ещё нет. Старые серии при этом не удаляются, а продолжают раздаваться!
Eсли вы уже удалили старые серии, то предотвратить повторную закачку старых серий можно, отжав галочку в соответсвующих местах при запуске нового торрента. По возможности, желательно не удалять старые серии как можно дольше, чтобы релизёр не столько продолжал раздавать старые серии, а смог сконцентрироваться на новых.
piratbit.org



Скачать Чёрный понедельник через торрент https://d.radikal.ru/d32/2003/79/bbf1c97dc172.jpg Скачать фильм Чёрный понедельник через торрент бесплантно в хорошем качестве Описание: После «Черного понедельника» — 19 октября 1987 года, когда произошел крупнейший обвал фондового рынка в истории Уолл-стрит, ... 10 10 2
Торрент: Зарегистрирован [2020-04-02 14:56] · скачан: 1 раз
Статус: √ проверено
Размер: 5.21 GB
Как cкачать? Как скачать Чёрный понедельник через торрент | qTorrent

% Раздел Тема Автор DL S | L
Зарубежные сериалы [ 8.43 GB ] Чёрный понедельник / Black Monday / Сезон: 2 / Серии: 1-4 из 10 [2020 WEB-DL 1080p] MVO [AlexFilm] bober100 Скачать
8 | 0

28-11-2019 20:33  

Отключить всю рекламу на сайте

    Дорогой пользователь! Огромная просьба, поблагодарите релизера, оцените раздачу и оставьте свои комментарий, если Вы скачали Чёрный понедельник через торрент бесплатно! Внесите свою лепту в развитие PiratBit!
    Комментировать посты могут только пользователи прошедшие не сложную регистрацию
    Показать сообщения:    

    Чёрный понедельник через торрент
    Скачать бесплатно Чёрный понедельник
    Чёрный понедельник скачать торрент
    Чёрный понедельник смотреть онлайн
    Cкачать фильм Чёрный понедельник бесплатно
    Чёрный понедельник скачать торрент в хорошем качестве
    Чёрный понедельник смотреть онлайн бесплатно в хорошем качестве


    Вы не можете начинать темы
    Вы не можете отвечать на сообщения
    Вы не можете редактировать свои сообщения
    Вы не можете удалять свои сообщения
    Вы не можете голосовать в опросах
    Вы не можете прикреплять файлы к сообщениям
    Вы можете скачивать файлы