Доктор Стрэндж

Лицензия

Добыча

Дубляж

Уэнсдэй

1 сезон

Тор

Дубляж

В эфире

Дубляж

Там, где раки поют

MVO

Властелин колец

1 сезон

Deluxe

pack

Рекомендуем

30

Пиратка

ВАЖНО

ВАЖНО

Ghostwire

Пиратка

jed

RePack

nioh2

RePack

RDR2

RePack

NEED FOR SPEED™ PAYBACK

RePack

скачать торрент

Кинопоиск HD

Острые козырьки 6 сезон

6 сезон

FAR CRY 6

RePack

скачать торрент

Лицензия

скачать торрент

MVO

1

1 сезон

скачать торрент

1 сезон

скачать торрент

Лицензия

  

Моя собака Идиот / Mon chien Stupide (Иван Атталь) [2019 г., комедия, WEB-DLRip, Дубляж "iTunes"]

Моя собака Идиот через торрент piratbit.org

Размер: 708 MB | Добавлен: 2 года 8 мес. назад | Торрент скачан:115 раз
Смотреть онлайн | Скачать   

20-03-2020 18:26 Моя собака Идиот Скачать торрент  

Моя собака Идиот / Mon chien Stupide
Год выпуска: 2019
Страна: Франция, Бельгия / Same Player, Montauk Films, Good Time Production
Жанр: комедия
Продолжительность: 01:46:20
Перевод: Дубляж (iTunes)

Режиссер: Иван Атталь

rating

В ролях: Иван Атталь, Шарлотта Генсбур, Эрик Руф, Паскаль Арбийо, Бен Атталь, Адель Вим, Пабло Венсаль, Панайотис Паскот, Оскар Копп, Лола Маруа-Бигар

Описание: Писатель Анри переживает, кажется, все кризисы сразу - пропало вдохновение, не ладятся отношения с женой, не получается прийти ко взаимопониманию с выросшими детьми. Но когда Анри завязывает уморительную дружбу с наглой бездомной собакой, у него появляется шанс начать все заново.

Качество: WEB-DLRip
Формат: AVI
Видео кодек: DivX
Аудио кодек: MP3
Видео: 672x280 (2.40:1), 23.976 fps, DivX Codec 4.x ~792 kbps avg, 0.17 bit/pixel
Аудио: 48 kHz, MPEG Layer 3, 2 ch, ~128.00 kbps avg
скриншот   скриншот   скриншот   скриншот   скриншот  

Общее
Полное имя : F:\ФИЛЬМЫ\Моя собака Идиот.2019.D.WEB-DLRip.avi
Формат : AVI
Формат/Информация : Audio Video Interleave
Размер файла : 708 Мбайт
Продолжительность : 1 ч. 46 м.
Общий поток : 930 Кбит/сек
Программа кодирования : VirtualDubMod 1.5.10.3 | www.virtualdub-fr.org || (build 2550/release)
Библиотека кодирования : VirtualDubMod build 2550/release

Видео
Идентификатор : 0
Формат : MPEG-4 Visual
Профиль формата : Advanced Simple@L5
Настройки формата : BVOP3 / GMC3 / QPel
Параметр BVOP формата : 3
Параметр QPel формата : Да
Параметр GMC формата : 3 точки перехода
Параметр матрицы формата : Default (MPEG)
Идентификатор кодека : DIVX
Идентификатор кодека/Информация : Project Mayo
Идентификатор кодека/Подсказка : DivX 4
Продолжительность : 1 ч. 46 м.
Битрейт : 793 Кбит/сек
Ширина : 672 пикселя
Высота : 280 пикселей
Соотношение сторон : 2,40:1
Частота кадров : 23,976 (24000/1001) кадра/сек
Цветовое пространство : YUV
Субдискретизация насыщенности : 4:2:0
Битовая глубина : 8 бит
Тип развёртки : Прогрессивная
Метод сжатия : С потерями
Бит/(Пиксели*Кадры) : 0.176
Размер потока : 603 Мбайт (85%)
Библиотека кодирования : XviD 1.2.1 (UTC 2008-12-04)

Аудио
Идентификатор : 1
Формат : MPEG Audio
Версия формата : Version 1
Профиль формата : Layer 3
Настройки формата : Joint stereo
Идентификатор кодека : 55
Идентификатор кодека/Подсказка : MP3
Продолжительность : 1 ч. 46 м.
Вид битрейта : Постоянный
Битрейт : 128 Кбит/сек
Каналы : 2 канала
Частота : 48,0 КГц
Частота кадров : 41,667 кадра/сек (1152 SPF)
Метод сжатия : С потерями
Размер потока : 97,4 Мбайт (14%)
Выравнивание : Соединение по промежуткам
Продолжительность промежутка : 42 мс. (1,00 видеокадр)
Время предзагрузки промежутка : 504 мс.
Библиотека кодирования : LAME3.99r
Настройки программы : -m j -V 4 -q 2 -lowpass 17 -b 128




Скачать Моя собака Идиот через торрент https://pic1.kartinco.top/images/12/cmkyu.jpg Скачать, смотреть онлайн Моя собака Идиот бесплантно в хорошем качестве Описание: Писатель Анри переживает, кажется, все кризисы сразу - пропало вдохновение, не ладятся отношения с женой, не получается прийти ко ... 10 10 1
Торрент: Зарегистрирован [2020-03-20 18:26] · скачан: 115 раз
Статус: √ проверено
Размер: 708 MB
Как cкачать? Как скачать Моя собака Идиот через торрент | UTorrent

% Раздел Тема Автор DL S | L
Фильмы (WEB-DL 720p, 1080p) [ 3.71 GB ] Моя собака Идиот / Mon chien Stupide | iTunes | 1080p bober100 Скачать
2 | 0
Фильмы 2019-2020 [DVDrip, WEB-DLRip, HDrip] (DUB, MVO) [ 1.46 GB ] Моя собака Идиот / Mon chien Stupide | iTunes | DLRip bober100 Скачать
1 | 0

28-11-2019 20:33  


Отключить вcю реклaмy на сайте, в т.ч. и в плеере онлайн просмотра!

    Дорогой пользователь! Огромная просьба, поблагодарите релизера, оцените раздачу и оставьте свои комментарий, если Вы скачали Моя собака Идиот через торрент бесплатно!!
    Комментировать посты могут только пользователи прошедшие не сложную регистрацию
    Показать сообщения:    


    Моя собака Идиот через торрент
    Скачать бесплатно Моя собака Идиот
    Моя собака Идиот скачать торрент
    Моя собака Идиот смотреть онлайн
    Cкачать фильм Моя собака Идиот бесплатно
    Моя собака Идиот скачать торрент в хорошем качестве
    Моя собака Идиот смотреть онлайн бесплатно в хорошем качестве
    Вы не можете начинать темы
    Вы не можете отвечать на сообщения
    Вы не можете редактировать свои сообщения
    Вы не можете удалять свои сообщения
    Вы не можете голосовать в опросах
    Вы не можете прикреплять файлы к сообщениям
    Вы можете скачивать файлы
    Моя собака Идиот / Mon chien Stupide [2019 г., комедия, WEB-DLRip, Дубляж "iTunes"] смотреть онлайн, скачать торрент picoco.icu