Ссылка на приватное зеркало всего за 1$. Внимание количество ограничено!!!

iTunes

iTunes

iTunes

1

iTunes

iTunes

iTunes

iTunes

iTunes

30
pack

Новость дня

ВАЖНО

!!Акция!!

Alien_RageХит недели

RePack

Resident Evil 21

ИГРА 18+

pack

RePack

jed

!!Акция!!

Alien_Rage

RePack

fifa19

RePack

Assassins Creed: Odyssey

RePack

NEED FOR SPEED™ PAYBACK

4 сезон

9 сезон

Бесстыжие 9 сезон

Все сериалы

все сериалы на PB.wtf

RePack

FAR CRY 5
  

Видоизмененный углерод / Altered Carbon: Resleeved (Такэхиро Накадзима, Окуда Ёсиюки) [2020, научная фантастика, боевик, драма, WEBRip 1080p] [MVO] (HDRezka Studio) piratbit.org

Видоизмененный углерод через торрент piratbit.org

Раздают: 6 [ 222 KB/s ]
Размер: 4.76 GB | Добавлен: 12 д. назад | Торрент скачан:27 раз
Скачать  

23-03-2020 13:05 Видоизмененный углерод Скачать торрент  

Год выпуска: 2020
Страна: Япония
Жанр: научная фантастика, боевик, драма
Продолжительность: 01:14:00
Перевод: Профессиональный (многоголосый) *HDRezka Studio*

Режиссеры: Такэхиро Накадзима, Окуда Ёсиюки

Описание: Бывший боец сопротивления, а ныне — наёмник Такэси Ковач, на планете Латимер расследует убийство босса якудза и в результате будет вынужден защищать девушку-татуировщицу, обладающую загадочной силой.

rating

Качество: WEBRip 1080p
Формат видео: MKV
Видео: x264, 1920x1080 (8 бит), ~8712 kbps, 24 fps
Аудио: AC3, 192 kbps, 48 kHz, 2 ch, русский
Субтитры: русские (forced)
General
Unique ID : 22739487365852809362206862014609718307 (0x111B7749672BF5E84C9A5BCF995D7C23)
Complete name : F:\Altered.Carbon.Resleeved.2020.WEBRip.1080p.rus.2.0.HDREZKA.STUDIO.mkv
Format : Matroska
Format version : Version 4 / Version 2
File size : 4.76 GiB
Duration : 1h 14mn
Overall bit rate mode : Variable
Overall bit rate : 9 085 Kbps
Encoded date : UTC 2020-03-22 03:33:45
Writing application : mkvmerge v28.2.0 ('The Awakening') 64-bit
Writing library : libebml v1.3.6 + libmatroska v1.4.9

Video
ID : 1
Format : AVC
Format/Info : Advanced Video Codec
Format profile : High@L4.1
Format settings, CABAC : Yes
Format settings, ReFrames : 1 frame
Codec ID : V_MPEG4/ISO/AVC
Duration : 1h 14mn
Bit rate mode : Variable
Bit rate : 8 712 Kbps
Maximum bit rate : 2 000 Kbps
Width : 1 920 pixels
Height : 1 080 pixels
Display aspect ratio : 16:9
Frame rate mode : Constant
Frame rate : 24.000 fps
Color space : YUV
Chroma subsampling : 4:2:0
Bit depth : 8 bits
Scan type : Progressive
Bits/(Pixel*Frame) : 0.175
Stream size : 4.56 GiB (96%)
Default : Yes
Forced : No

Audio
ID : 2
Format : AC-3
Format/Info : Audio Coding 3
Mode extension : CM (complete main)
Format settings, Endianness : Big
Codec ID : A_AC3
Duration : 1h 14mn
Bit rate mode : Constant
Bit rate : 192 Kbps
Channel(s) : 2 channels
Channel positions : Front: L R
Sampling rate : 48.0 KHz
Compression mode : Lossy
Stream size : 103 MiB (2%)
Language : Russian
Default : Yes
Forced : No
скриншот  скриншот  скриншот  
piratbit.org



Скачать Видоизмененный углерод через торрент https://c.radikal.ru/c14/2003/c1/05f21c312e49.png Скачать фильм Видоизмененный углерод через торрент бесплантно в хорошем качестве Описание: Бывший боец сопротивления, а ныне — наёмник Такэси Ковач, на планете Латимер расследует убийство босса якудза и в результате ... 10 10 1
Торрент: Зарегистрирован [2020-03-23 13:05] · скачан: 27 раз
Статус: T временная
Размер: 4.76 GB
Как cкачать? Как скачать Видоизмененный углерод через торрент | qTorrent

% Раздел Тема Автор DL S | L
T Релизы по Парсеру [Игры, Сериалы и Фильмы и другое...] [ 5.17 GB ] Видоизмененный углерод / Altered Carbon: Resleeved [2020 научная WEBRip 1080p] Sub killermax2013 Скачать
1 | 0

28-11-2019 20:33  

Отключить всю рекламу на сайте

    Дорогой пользователь! Огромная просьба, поблагодарите релизера, оцените раздачу и оставьте свои комментарий, если Вы скачали Видоизмененный углерод через торрент бесплатно! Внесите свою лепту в развитие PiratBit!
    Комментировать посты могут только пользователи прошедшие не сложную регистрацию
    Показать сообщения:    

    Видоизмененный углерод через торрент
    Скачать бесплатно Видоизмененный углерод
    Видоизмененный углерод скачать торрент
    Видоизмененный углерод смотреть онлайн
    Cкачать фильм Видоизмененный углерод бесплатно
    Видоизмененный углерод скачать торрент в хорошем качестве
    Видоизмененный углерод смотреть онлайн бесплатно в хорошем качестве


    Вы не можете начинать темы
    Вы не можете отвечать на сообщения
    Вы не можете редактировать свои сообщения
    Вы не можете удалять свои сообщения
    Вы не можете голосовать в опросах
    Вы не можете прикреплять файлы к сообщениям
    Вы можете скачивать файлы