Ссылка на приватное зеркало всего за 1$. Внимание количество ограничено!!!

iTunes

iTunes

iTunes

1

iTunes

iTunes

iTunes

iTunes

iTunes

30
pack

Новость дня

ВАЖНО

!!Акция!!

Alien_RageХит недели

RePack

Resident Evil 21

ИГРА 18+

pack

RePack

jed

!!Акция!!

Alien_Rage

RePack

fifa19

RePack

Assassins Creed: Odyssey

RePack

NEED FOR SPEED™ PAYBACK

4 сезон

9 сезон

Бесстыжие 9 сезон

Все сериалы

все сериалы на PB.wtf

RePack

FAR CRY 5
  

Восемь дней / 8 Tage / Сезон: 1 / Серии: 1-8 из 8 (Майкл Крумменахер, Штефан Руцовицки) [2019, Драма, WEBRip] MVO [TVShows] piratbit.org

Восемь дней через торрент piratbit.org

Раздают: 5 [ 5 KB/s ]
Размер: 6.21 GB | Добавлен: 11 д. назад | Торрент скачан:28 раз
Скачать  

23-03-2020 14:26 Восемь дней Скачать торрент  

Восемь дней | 8 Tage
Год выпуска: 2019
Страна: Германия
Жанр: Драма
Продолжительность: ~ 00:48:00 серия
Перевод: Профессиональный (многоголосый) | TVShows
Субтитры: отсутствуют

Режиссер: Майкл Крумменахер, Штефан Руцовицки

rating

В ролях: Кристиана Пауль, Марк Вашке, Анна-Лена Кленке, Луиза-Селин Гаффрон, Фабиан Хинрихс, Нора фон Вальдштеттен, Девид Штрисов, Муратан Муслу, Хенри Хюбхен, Дэвид Шюттер

Описание: Астероид диаметром 60 километров приближается к Земле и должен упасть где-то в центре Европы. Примерное число тех, кто останется в живых - ноль. США пытается сбить небесное тело при помощи ядерного оружия, но терпит неудачу. В распоряжении человечества лишь восемь дней.​

Качество: WEBRip
Формат: AVI

Видео: XVID, 704x352, 25.000 fps, 2000 kbps avg, 0.32 bit/pixel
Аудио Rus: AC3, 48.0 KHz, 6 channels, 384 kbps
скриншот  скриншот  скриншот  скриншот  скриншот  

General
Complete name : F:\Восемь дней (Сезон 1) TVShows\8.Days.S01E01.WEBRip.RGzsRutracker.Celta88.avi
Format : AVI
Format/Info : Audio Video Interleave
File size : 750 MiB
Duration : 43 min 49 s
Overall bit rate : 2 394 kb/s
Writing application : VirtualDubMod 1.5.10.3 | www.virtualdub-fr.org || (build 2550/release)
Writing library : VirtualDubMod build 2550/release

Video
ID : 0
Format : MPEG-4 Visual
Format profile : Advanced Simple@L5
Format settings, BVOP : 1
Format settings, QPel : No
Format settings, GMC : No warppoints
Format settings, Matrix : Custom
Codec ID : XVID
Codec ID/Hint : XviD
Duration : 43 min 49 s
Bit rate : 2 000 kb/s
Width : 704 pixels
Height : 352 pixels
Display aspect ratio : 2.000
Frame rate : 25.000 FPS
Color space : YUV
Chroma subsampling : 4:2:0
Bit depth : 8 bits
Scan type : Progressive
Compression mode : Lossy
Bits/(Pixel*Frame) : 0.323
Stream size : 627 MiB (84%)
Writing library : XviD 73

Audio
ID : 1
Format : AC-3
Format/Info : Audio Coding 3
Mode extension : CM (complete main)
Format settings, Endianness : Big
Codec ID : 2000
Duration : 43 min 49 s
Bit rate mode : Constant
Bit rate : 384 kb/s
Channel(s) : 6 channels
Channel positions : Front: L C R, Side: L R, LFE
Sampling rate : 48.0 kHz
Frame rate : 31.250 FPS (1536 spf)
Bit depth : 16 bits
Compression mode : Lossy
Stream size : 120 MiB (16%)
Alignment : Split accross interleaves
Interleave, duration : 40 ms (1.00 video frame)
Interleave, preload duratio : 500 ms

piratbit.org



Скачать Восемь дней через торрент https://i89.fastpic.ru/big/2019/1011/9a/b81a20ef715410d2f7456a6851e6f59a.jpg Скачать фильм Восемь дней через торрент бесплантно в хорошем качестве Описание: Астероид диаметром 60 километров приближается к Земле и должен упасть где-то в центре Европы. Примерное число тех, кто останется ... 10 10 2
Торрент: Зарегистрирован [2020-03-23 14:26] · скачан: 28 раз
Статус: √ проверено
Размер: 6.21 GB
Как cкачать? Как скачать Восемь дней через торрент | qTorrent

% Раздел Тема Автор DL S | L
Зарубежные сериалы [ 25.44 GB ] Восемь дней / 8 Tage / Сезон: 1 / Серии: 1-8 из 8 [2019 WEBRip 1080p] MVO [TVShows] bober100 Скачать
4 | 0
Зарубежные сериалы [ 14.07 GB ] Восемь дней / 8 Tage / Сезон: 1 / Серии: 1-8 из 8 [2019 WEBRip 720p] MVO [TVShows] bober100 Скачать
1 | 0

28-11-2019 20:33  

Отключить всю рекламу на сайте

27-03-2020 22:46 Восемь дней Скачать торрент  

Описание заинтриговало да и жанр любимый, заценю сериальчик.piratbit.org



    Дорогой пользователь! Огромная просьба, поблагодарите релизера, оцените раздачу и оставьте свои комментарий, если Вы скачали Восемь дней через торрент бесплатно! Внесите свою лепту в развитие PiratBit!
    Комментировать посты могут только пользователи прошедшие не сложную регистрацию
    Показать сообщения:    

    Восемь дней через торрент
    Скачать бесплатно Восемь дней
    Восемь дней скачать торрент
    Восемь дней смотреть онлайн
    Cкачать фильм Восемь дней бесплатно
    Восемь дней скачать торрент в хорошем качестве
    Восемь дней смотреть онлайн бесплатно в хорошем качестве


    Вы не можете начинать темы
    Вы не можете отвечать на сообщения
    Вы не можете редактировать свои сообщения
    Вы не можете удалять свои сообщения
    Вы не можете голосовать в опросах
    Вы не можете прикреплять файлы к сообщениям
    Вы можете скачивать файлы