1 сезон

3 сезон

iTunes

1

iTunes

DUB Netflix

iTunes

13

1 сезон

RePack

30

Deluxe

pack

Легкие деньги

ВАЖНО

ИГРА 18+

pack

RePack

MK11

RePack

jed

RePack

fifa19

RePack

RDR2

RePack

NEED FOR SPEED™ PAYBACK

4 сезон

9 сезон

Бесстыжие 9 сезон

Все сериалы

все сериалы на PB.wtf

RePack

FAR CRY 5

Anonymous, доброй ночи, мы не успеваем до 1 числа собрать деньги на оплату серверов, помогите нам пожалуйста в это трудное время. В качестве благодарности мы отключим Вам всю рекламу на сайте (укажите свой ник в строку Ваше имя)!

×
  
Magnet ссылка

Колл-центр / Сезон: 1 / Серии: 1-8 из 8 (Наталья Меркулова, Алексей Чупов) [2020, Драма, мистика, триллер, WEBRip] piratbit.org

Колл-центр через торрент piratbit.org

Размер: 4.69 GB | Добавлен: 1 год 2 мес. назад | Торрент скачан:362 раза
Скачать  

23-03-2020 19:23 Колл-центр Скачать торрент  

Колл-центр Год выпуска: 2020
Страна: Россия
Жанр: Драма, мистика, триллер
Продолжительность: ~ 00:45:00 серия
Перевод: Не требуется
Субтитры: отсутствуют

Режиссер: Наталья Меркулова, Алексей Чупов



В ролях: Павел Табаков, Владимир Яглыч, Юлия Хлынина, Анатолий Белый, Сабина Ахмедова, Мадлен Джабраилова, Никита Тарасов, Аскар Нигамедзянов, Зоя Кайдановская, Полина Пушкарук, Ольга Веникова, Леван Хурция, Стася Милославская, Тарас Епифанцев, Константин Белошапка, Наталья Кудряшова, Алиса Сельникова, Егор Шереметьев, Екатерина Волкова, Антон Ерёмин

Описание: 12 сотрудников офиса колл-центра интернет-магазина для взрослых оказываются заперты на 25-м этаже московского бизнес-центра. Внезапно с ними связываются злоумышленники, называющие себя «мамой» и «папой». Они сообщают, что помещение заминировано. Для того, чтобы бомба не взорвалась раньше срока, работники обязаны выполнять требования преступников. Удастся ли заложникам обезвредить бомбу и спастись, но при этом остаться людьми?

Качество: WEBRip
Формат: AVI

Видео: XviD, ~ 1673 Кбит/с, 720x320
Аудио: AC3, 2 ch, 192 Кбит/с
скриншот  скриншот  скриншот  скриншот  

Общее
Полное имя : D:\Koll-centr.S01.WEB-DLRip.25Kuzmich\Koll-centr.s01e01.WEB-DLRip.25Kuzmich.avi
Формат : AVI
Формат/Информация : Audio Video Interleave
Размер файла : 600 Мбайт
Продолжительность : 44 м. 44 с.
Общий поток : 1875 Кбит/сек
Программа кодирования : VirtualDubMod 1.5.10.3 | www.virtualdub-fr.org || (build 2550/release)
Библиотека кодирования : VirtualDubMod build 2550/release

Видео
Идентификатор : 0
Формат : MPEG-4 Visual
Профиль формата : Advanced Simple@L5
Параметр BVOP формата : 1
Параметр QPel формата : Нет
Параметр GMC формата : Без точки перехода
Параметр матрицы формата : Default (MPEG)
Идентификатор кодека : XVID
Идентификатор кодека/Подсказка : XviD
Продолжительность : 44 м. 44 с.
Битрейт : 1673 Кбит/сек
Ширина : 720 пикселей
Высота : 320 пикселей
Соотношение сторон : 2,25:1
Частота кадров : 25,000 кадров/сек
Цветовое пространство : YUV
Субдискретизация насыщенности : 4:2:0
Битовая глубина : 8 бит
Тип развёртки : Прогрессивная
Метод сжатия : С потерями
Бит/(Пиксели*Кадры) : 0.278
Размер потока : 512 Мбайт (85%)
Библиотека кодирования : XviD 73

Аудио
Идентификатор : 1
Формат : AC-3
Формат/Информация : Audio Coding 3
Расширение режима : CM (complete main)
Параметр Endianness формата : Big
Идентификатор кодека : 2000
Продолжительность : 44 м. 44 с.
Вид битрейта : Постоянный
Битрейт : 192 Кбит/сек
Каналы : 2 канала
Расположение каналов : Front: L R
Частота : 48,0 КГц
Частота кадров : 31,250 кадров/сек (1536 spf)
Метод сжатия : С потерями
Размер потока : 61,4 Мбайт (10%)
Выравнивание : Разделение по промежуткам

Когда раздача ведётся путём добавления новых серий, при каждом добавлении создётся новый торрент. Чтобы начать докачку новой серии, пользователям необходимо сделать следующее:
(1) остановить скачивание,
(2) удалить старый торрент у себя из клиента (старые серии удалять не надо),
(3) скачать новый торрент и запустить его у себя в клиенте вместо старого, при этом указать клиенту путь в старую папку, куда и должно происходить скачивание новых серий.
Ваш клиент при этом должен произвести хеширование (проверку) старой папки (если не производит сам - помогите ему сделать это), и будет докачивать только те серии, которых у вас ещё нет. Старые серии при этом не удаляются, а продолжают раздаваться!
Eсли вы уже удалили старые серии, то предотвратить повторную закачку старых серий можно, отжав галочку в соответсвующих местах при запуске нового торрента. По возможности, желательно не удалять старые серии как можно дольше, чтобы релизёр не столько продолжал раздавать старые серии, а смог сконцентрироваться на новых.
piratbit.org



Скачать Колл-центр через торрент https://img10.lostpic.net/2020/03/23/7a77b472f838aa9b23314f975d45f1c9.jpg Скачать фильм Колл-центр через торрент бесплантно в хорошем качестве Описание: 12 сотрудников офиса колл-центра интернет-магазина для взрослых оказываются заперты на 25-м этаже московского бизнес-центра. ... 9.9 10 16
Торрент: Зарегистрирован [2020-04-02 20:26] · скачан: 362 раз
Статус: √ проверено
Размер: 4.69 GB
Как cкачать? Как скачать Колл-центр через торрент | UTorrent

% Раздел Тема Автор DL S | L
TNT serials [ 5.21 GB ] Колл-центр / Сезон: 1 / Серии: 1-8 из 8 [2020 SATRip] bober100 Скачать
2 | 0
TNT serials [ 12.79 GB ] Колл-центр / Сезон: 1 / Серии: 1-8 из 8 [2020 WEBRip 1080p] bober100 Скачать
1 | 0
TNT serials [ 16.44 GB ] Колл-центр / Сезон: 1 / Серии: 1-8 из 8 [2020 HDTV 1080i] bober100 Скачать
1 | 0
TNT serials [ 6.26 GB ] Колл-центр / Сезон: 1 / Серии: 1-8 из 8 [2020 WEBRip-AVC] bober100 Скачать
6 | 0
TNT serials [ 8.68 GB ] Колл-центр / Сезон: 1 / Серии: 1-8 из 8 [2020 WEBRip 720p] bober100 Скачать
1 | 0

28-11-2019 20:33  

Отключить всю рекламу на сайте

11-04-2020 04:35 Колл-центр Скачать торрент  

встаньте на раздачу пожалуйстаpiratbit.org



    Дорогой пользователь! Огромная просьба, поблагодарите релизера, оцените раздачу и оставьте свои комментарий, если Вы скачали Колл-центр через торрент бесплатно! Внесите свою лепту в развитие PiratBit!
    Комментировать посты могут только пользователи прошедшие не сложную регистрацию
    Показать сообщения:    

    Колл-центр через торрент
    Скачать бесплатно Колл-центр
    Колл-центр скачать торрент
    Колл-центр смотреть онлайн
    Cкачать фильм Колл-центр бесплатно
    Колл-центр скачать торрент в хорошем качестве
    Колл-центр смотреть онлайн бесплатно в хорошем качестве


    Вы не можете начинать темы
    Вы не можете отвечать на сообщения
    Вы не можете редактировать свои сообщения
    Вы не можете удалять свои сообщения
    Вы не можете голосовать в опросах
    Вы не можете прикреплять файлы к сообщениям
    Вы можете скачивать файлы