Достать ножи: Стеклянная луковица

MVO

Добыча

Дубляж

Уэнсдэй

1 сезон

Тор

Дубляж

13 клиническая

1 сезон

Жестокая ночь

MVO

Одни из нас

1 сезон

Deluxe

pack

Рекомендуем

30

Пиратка

ВАЖНО

ВАЖНО

Ghostwire

Пиратка

jed

RePack

nioh2

RePack

RDR2

RePack

NEED FOR SPEED™ PAYBACK

RePack

скачать торрент

Кинопоиск HD

Острые козырьки 6 сезон

6 сезон

FAR CRY 6

RePack

скачать торрент

Лицензия

скачать торрент

MVO

1

1 сезон

скачать торрент

1 сезон

скачать торрент

Лицензия

  

1917 / 1917 (Сэм Мендес) [2019, Военный, боевик, история, драма, UHD BDRemux 2160p] Дубляж [Лицензия]

1917 через торрент piratbit.org

Размер: 62.4 GB | Добавлен: 2 года 8 мес. назад | Торрент скачан:65 раз
Смотреть онлайн | Скачать | Поддержите нас   

24-03-2020 19:18 1917 Скачать торрент  

1917 | 1917
Год выпуска: 2019
Страна: США, Великобритания, Индия, Испания, Канада
Студия: Amblin Partners, DreamWorks, Neal Street Productions
Жанр: Военный, боевик, история, драма
Продолжительность: 01:58:58
Перевод: Дублированный | Лицензия
Субтитры: Русские (Forced, full), английские

Режиссер: Сэм Мендес

rating

В ролях: Эндрю Скотт, Бенедикт Камбербэтч, Колин Фёрт, Ричард Мэдден, Дин-Чарльз Чепмен, Джордж Маккэй, Марк Стронг, Дэниэл Мейс, Эдриан Скарборо, Крис Уолли

Описание: 6 апреля 1917 года, разгар Первой мировой войны, Западный фронт на севере Франции. Британский генерал поручает капралу Блэйку и его сослуживцу смертельно опасную миссию. Они должны пересечь вражескую территорию, вроде бы оставленную германскими войсками, и доставить приказ об отмене наступления во 2-й батальон Девонширского полка, иначе 1600 солдат попадут в ловушку противника, в том числе и брат Блэйка.

Качество: UHD BDRemux 2160p
Формат: MKV

Видео: 3840x2160 at 23.976 fps, MPEG-H HEVC HDR Video, 70100 kbps avg
Аудио #01: 48 kHz, AC3, 5.1, 640 Kbps | Лицензия | RUS |
Аудио #02: 48 kHz, TrueHD, 7.1, 3810 Kbps | Оригинал | ENG |
Аудио #03: 48 kHz, AC3, 5.1, 448 Kbps | Оригинал | ENG |
скриншот  скриншот  скриншот  скриншот  скриншот  

General
Unique ID : 297685243469886536758657522882893915981 (0xDFF417AA2749ED55868EF27CC9AD274D)
Complete name : E:Video1111917.2019.Lic.BDREMUX.2160p.HDR.seleZen.mkv
Format : Matroska
Format version : Version 4
File size : 62.4 GiB
Duration : 1 h 58 min
Overall bit rate mode : Variable
Overall bit rate : 75.1 Mb/s
Movie name : 1917 2019 from селезень
Encoded date : UTC 2020-05-21 12:08:43
Writing application : mkvmerge v40.0.0 ('Old Town Road + Pony') 64-bit
Writing library : libebml v1.3.9 + libmatroska v1.5.2

Video
ID : 1
Format : HEVC
Format/Info : High Efficiency Video Coding
Format profile : Main 10@L5.1@High
HDR format : SMPTE ST 2094 App 4, Version 1, HDR10+ Profile B compatible
Codec ID : V_MPEGH/ISO/HEVC
Duration : 1 h 58 min
Bit rate : 70.1 Mb/s
Width : 3 840 pixels
Height : 2 160 pixels
Display aspect ratio : 16:9
Frame rate mode : Constant
Frame rate : 23.976 (24000/1001) FPS
Color space : YUV
Chroma subsampling : 4:2:0 (Type 2)
Bit depth : 10 bits
Bits/(Pixel*Frame) : 0.353
Stream size : 58.3 GiB (93%)
Language : English
Default : Yes
Forced : No
Color range : Limited
Color primaries : BT.2020
Transfer characteristics : PQ
Matrix coefficients : BT.2020 non-constant
Mastering display color pri : Display P3
Mastering display luminance : min: 0.0001 cd/m2, max: 1000 cd/m2
Maximum Content Light Level : 1000 cd/m2
Maximum Frame-Average Light : 168 cd/m2

Audio #1
ID : 2
Format : AC-3
Format/Info : Audio Coding 3
Commercial name : Dolby Digital
Codec ID : A_AC3
Duration : 1 h 58 min
Bit rate mode : Constant
Bit rate : 640 kb/s
Channel(s) : 6 channels
Channel layout : L R C LFE Ls Rs
Sampling rate : 48.0 kHz
Frame rate : 31.250 FPS (1536 SPF)
Compression mode : Lossy
Stream size : 545 MiB (1%)
Title : Дубляж [License]
Language : Russian
Service kind : Complete Main
Default : Yes
Forced : Yes

Audio #2
ID : 3
Format : MLP FBA 16-ch
Format/Info : Meridian Lossless Packing FBA with 16-channel presentation
Commercial name : Dolby TrueHD with Dolby Atmos
Codec ID : A_TRUEHD
Duration : 1 h 58 min
Bit rate mode : Variable
Bit rate : 3 810 kb/s
Maximum bit rate : 7 158 kb/s
Channel(s) : 8 channels
Channel layout : L R C LFE Ls Rs Lb Rb
Sampling rate : 48.0 kHz
Frame rate : 1 200.000 FPS (40 SPF)
Compression mode : Lossless
Stream size : 3.17 GiB (5%)
Title : Original
Language : English
Default : No
Forced : No
Number of dynamic objects : 11
Bed channel count : 1 channel
Bed channel configuration : LFE

Audio #3
ID : 4
Format : AC-3
Format/Info : Audio Coding 3
Commercial name : Dolby Digital
Codec ID : A_AC3
Duration : 1 h 58 min
Bit rate mode : Constant
Bit rate : 448 kb/s
Channel(s) : 6 channels
Channel layout : L R C LFE Ls Rs
Sampling rate : 48.0 kHz
Frame rate : 31.250 FPS (1536 SPF)
Compression mode : Lossy
Stream size : 381 MiB (1%)
Language : English
Service kind : Complete Main
Default : No
Forced : No

Text #1
ID : 5
Format : UTF-8
Codec ID : S_TEXT/UTF8
Codec ID/Info : UTF-8 Plain Text
Duration : 1 h 57 min
Bit rate : 1 b/s
Count of elements : 45
Stream size : 1.72 KiB (0%)
Title : Forced
Language : Russian
Default : Yes
Forced : Yes

Text #2
ID : 6
Format : UTF-8
Codec ID : S_TEXT/UTF8
Codec ID/Info : UTF-8 Plain Text
Duration : 1 h 49 min
Bit rate : 57 b/s
Count of elements : 837
Stream size : 45.7 KiB (0%)
Title : Full
Language : Russian
Default : No
Forced : No

Text #3
ID : 7
Format : UTF-8
Codec ID : S_TEXT/UTF8
Codec ID/Info : UTF-8 Plain Text
Duration : 1 h 45 min
Bit rate : 35 b/s
Count of elements : 937
Stream size : 27.1 KiB (0%)
Title : Full
Language : English
Default : No
Forced : No

Text #4
ID : 8
Format : UTF-8
Codec ID : S_TEXT/UTF8
Codec ID/Info : UTF-8 Plain Text
Duration : 1 h 45 min
Bit rate : 40 b/s
Count of elements : 1100
Stream size : 31.2 KiB (0%)
Title : SDH
Language : English
Default : No
Forced : No

Menu
00:00:00.000 : :Chapter 01
00:05:00.425 : :Chapter 02
00:08:20.375 : :Chapter 03
00:13:27.640 : :Chapter 04
00:16:39.790 : :Chapter 05
00:23:33.495 : :Chapter 06
00:30:29.661 : :Chapter 07
00:35:35.550 : :Chapter 08
00:42:26.377 : :Chapter 09
00:51:35.092 : :Chapter 10
00:56:37.311 : :Chapter 11
01:02:30.080 : :Chapter 12
01:06:34.574 : :Chapter 13
01:12:05.321 : :Chapter 14
01:19:46.198 : :Chapter 15
01:28:48.823 : :Chapter 16
01:33:44.452 : :Chapter 17
01:38:12.595 : :Chapter 18
01:41:44.682 : :Chapter 19
01:49:47.581 : :Chapter 20




Скачать 1917 через торрент https://img10.lostpic.net/2020/03/24/1fda4be8cebdbaa6636de233e9fff60a.jpg Скачать, смотреть онлайн 1917 бесплантно в хорошем качестве Описание: 6 апреля 1917 года, разгар Первой мировой войны, Западный фронт на севере Франции. Британский генерал поручает капралу Блэйку и ... 8 10 9
Info! Золотая раздача, скачанное не засчитывается.
Торрент: Зарегистрирован [2020-05-21 12:29] · скачан: 65 раз
Статус: √ проверено
Размер: 62.4 GB
Как cкачать? Как скачать 1917 через торрент | UTorrent

% Раздел Тема Автор DL S | L
Ultra HD (UHD: 2K, 4K, 8K) [ 11.51 GB ] 1917 / 1917 | Лицензия | 2160p bober100 Скачать
1 | 0
Фильмы [HD 720p, 1080p] (Хороший звук DUB, MVO) [ 7.05 GB ] 1917 / 1917 | AVO | 720p killermax2013 Скачать
1 | 0
Фильмы 2019-2020 [DVDrip, WEB-DLRip, HDrip] (DUB, MVO) [ 2.18 GB ] 1917 / 1917 | Лицензия | BDRip Twi7ter Скачать
3 | 0
Фильмы 2019-2020 [DVDrip, WEB-DLRip, HDrip] (DUB, MVO) [ 2.34 GB ] 1917 / 1917 | Лицензия | BDRip-AVC Enigma2010 Скачать
11 | 0
Фильмы (Blu-ray, BD-Remux, HDDVD) [ 38.7 GB ] 1917 / 1917 | Лицензия | 1080p bober100 Скачать
1 | 0
Фильмы 2019-2020 [DVDrip, WEB-DLRip, HDrip] (DUB, MVO) [ 747 MB ] 1917 / 1917 | iTunes | HDRip bober100 Скачать
1 | 0
Фильмы 2019-2020 [DVDrip, WEB-DLRip, HDrip] (DUB, MVO) [ 1.46 GB ] 1917 / 1917 | Лицензия | BDRip Twi7ter Скачать
31 | 2

28-11-2019 20:33  


Отключить вcю реклaмy на сайте, в т.ч. и в плеере онлайн просмотра!

21-05-2020 13:45 1917 Скачать торрент  

Аудио #02: 48 kHz, TrueHD, 7.1, 3810 Kbps | Оригинал | ENG |1917
ни чё се... 7,1 - это как? вокруг всего тебя? во дают... у меня STEREO))
но двухканальные



    Дорогой пользователь! Огромная просьба, поблагодарите релизера, оцените раздачу и оставьте свои комментарий, если Вы скачали 1917 через торрент бесплатно!!
    Комментировать посты могут только пользователи прошедшие не сложную регистрацию
    Показать сообщения:    


    1917 через торрент
    Скачать бесплатно 1917
    1917 скачать торрент
    1917 смотреть онлайн
    Cкачать фильм 1917 бесплатно
    1917 скачать торрент в хорошем качестве
    1917 смотреть онлайн бесплатно в хорошем качестве
    Вы не можете начинать темы
    Вы не можете отвечать на сообщения
    Вы не можете редактировать свои сообщения
    Вы не можете удалять свои сообщения
    Вы не можете голосовать в опросах
    Вы не можете прикреплять файлы к сообщениям
    Вы можете скачивать файлы
    1917 / 1917 [2019, Военный, боевик, история, драма, UHD BDRemux 2160p] Дубляж [Лицензия] смотреть онлайн, скачать торрент picoco.icu