Ссылка на приватное зеркало всего за 1$. Внимание количество ограничено!!!

iTunes

iTunes

iTunes

1

iTunes

iTunes

iTunes

iTunes

iTunes

30
pack

Новость дня

ВАЖНО

!!Акция!!

Alien_RageХит недели

RePack

Resident Evil 21

ИГРА 18+

pack

RePack

jed

!!Акция!!

Alien_Rage

RePack

fifa19

RePack

Assassins Creed: Odyssey

RePack

NEED FOR SPEED™ PAYBACK

4 сезон

9 сезон

Бесстыжие 9 сезон

Все сериалы

все сериалы на PB.wtf

RePack

FAR CRY 5
  

Человек-невидимка / The Invisible Man (Ли Уоннелл) [2020, ужасы, фантастика, триллер, детектив, WEB-DL 1080p] 2xMVO [HDRezka Studio, Mallorn] +DUB (ukr) piratbit.org

Человек-невидимка через торрент piratbit.org

Раздают: 33 [ 2 MB/s ]
Размер: 8.63 GB | Добавлен: 10 д. назад | Торрент скачан:499 раз
Скачать  

24-03-2020 20:49 Человек-невидимка Скачать торрент  

Человек-невидимка | The Invisible Man
Год выпуска: 2020
Страна: Австралия, США, Канада, Великобритания
Студия: Goalpost Pictures, Blumhouse Productions, Dark Universe
Жанр: ужасы, фантастика, триллер, детектив
Продолжительность: 02:04:22
Перевод 1: Профессиональный (многоголосый, закадровый) | HDrezka Studio
Перевод 2: Любительский многоголосый | Mallorn Присутствует ненормативная лексика!
Субтитры: Русские (Forced, Full), украинские (Full), английские (Full, SDH)

Режиссер: Ли Уоннелл

rating

В ролях: Элизабет Мосс, Оливер Джексон-Коэн, Харриет Дайер, Элдис Ходж, Сторм Рейд, Майкл Дорман, Бенедикт Харди, Рени Лим, Брайан Миган, Ник Кичи

Описание: На первый взгляд жизнь Сесилии кажется безупречной: огромный дом, бойфренд - гениальный ученый-миллионер. Но никто не знает, что на самом деле происходит за высокими стенами роскошного особняка... И даже идеально спланированный побег оказывается ловушкой. Невозможно спрятаться от преследователя, которого не видишь.

Качество: WEB-DL 1080p
Формат: MKV

Видео: AVC, 1920x1080 (16:9), 23.976 fps, 8 458 kb/s
Аудио#1: Русский (AC3, 2 ch, 384 Кбит/с)
Аудио 1: AC3, 48.0 kHz, 6 ch, 448 kb/s | MVO / HDrezka Studio| RUS
Аудио 2: AC3, 48.0 kHz, 6 ch, 448 kb/s | L / Mallorn | RUS
Аудио 3: AC3, 48.0 kHz, 2 ch, 192 kb/s | DUB / Line | UKR
Аудио 4: AC3, 48.0 kHz, 6 ch, 448 kb/s | Оригинал | ENG
скриншот  скриншот  скриншот  скриншот  скриншот  

General
Unique ID : 226790894034523810775613438273469047252 (0xAA9E565F6C5E321BBEE233646EBC61D4)
Complete name : The.Invisible.Man.(2020).WEB-DL.1080p.2Rus.Ukr.mkv
Format : Matroska
Format version : Version 4
File size : 8.63 GiB
Duration : 2 h 4 min
Overall bit rate : 9 915 kb/s
Encoded date : UTC 2020-03-24 14:06:44
Writing application : mkvmerge v8.3.0 ('Over the Horizon') 64bit
Writing library : libebml v1.3.1 + libmatroska v1.4.2

Video
ID : 1
Format : AVC
Format/Info : Advanced Video Codec
Format profile : High@L4.1
Format settings : CABAC / 3 Ref Frames
Format settings, CABAC : Yes
Format settings, ReFrames : 3 frames
Codec ID : V_MPEG4/ISO/AVC
Duration : 2 h 4 min
Bit rate : 8 458 kb/s
Width : 1 920 pixels
Height : 1 080 pixels
Display aspect ratio : 16:9
Frame rate mode : Constant
Frame rate : 23.976 (23976/1000) FPS
Color space : YUV
Chroma subsampling : 4:2:0
Bit depth : 8 bits
Scan type : Progressive
Bits/(Pixel*Frame) : 0.170
Stream size : 7.29 GiB (84%)
Writing library : x264 core 142
Encoding settings : cabac=1 / ref=3 / deblock=1:-1:-1 / analyse=0x3:0x113 / me=hex / subme=7 / psy=1 / psy_rd=1.00:0.15 / mixed_ref=1 / me_range=16 / chroma_me=1 / trellis=1 / 8x8dct=1 / cqm=0 / deadzone=21,11 / fast_pskip=0 / chroma_qp_offset=-3 / threads=8 / lookahead_threads=1 / sliced_threads=0 / nr=0 / decimate=1 / interlaced=0 / bluray_compat=0 / stitchable=1 / constrained_intra=0 / bframes=3 / b_pyramid=0 / b_adapt=1 / b_bias=0 / direct=1 / weightb=1 / open_gop=0 / weightp=2 / keyint=96 / keyint_min=24 / scenecut=40 / intra_refresh=0 / rc_lookahead=40 / rc=2pass / mbtree=1 / bitrate=8458 / ratetol=1.0 / qcomp=0.60 / qpmin=0 / qpmax=69 / qpstep=4 / cplxblur=20.0 / qblur=0.5 / vbv_maxrate=8458 / vbv_bufsize=8458 / nal_hrd=none / filler=0 / ip_ratio=1.40 / aq=1:1.00
Default : Yes
Forced : No

Audio #1
ID : 2
Format : AC-3
Format/Info : Audio Coding 3
Commercial name : Dolby Digital
Codec ID : A_AC3
Duration : 2 h 4 min
Bit rate mode : Constant
Bit rate : 448 kb/s
Channel(s) : 6 channels
Channel layout : L R C LFE Ls Rs
Sampling rate : 48.0 kHz
Frame rate : 31.250 FPS (1536 SPF)
Bit depth : 16 bits
Compression mode : Lossy
Stream size : 399 MiB (5%)
Title : MVO [HDRezka Studio]
Language : Russian
Default : Yes
Forced : No

Audio #2
ID : 3
Format : AC-3
Format/Info : Audio Coding 3
Commercial name : Dolby Digital
Codec ID : A_AC3
Duration : 2 h 4 min
Bit rate mode : Constant
Bit rate : 448 kb/s
Channel(s) : 6 channels
Channel layout : L R C LFE Ls Rs
Sampling rate : 48.0 kHz
Frame rate : 31.250 FPS (1536 SPF)
Bit depth : 16 bits
Compression mode : Lossy
Stream size : 399 MiB (5%)
Title : Mallorn
Language : Russian
Default : No
Forced : No

Audio #3
ID : 4
Format : AC-3
Format/Info : Audio Coding 3
Commercial name : Dolby Digital
Codec ID : A_AC3
Duration : 2 h 4 min
Bit rate mode : Constant
Bit rate : 192 kb/s
Channel(s) : 2 channels
Channel layout : L R
Sampling rate : 48.0 kHz
Frame rate : 31.250 FPS (1536 SPF)
Bit depth : 16 bits
Compression mode : Lossy
Stream size : 171 MiB (2%)
Title : Dub [Line]
Language : Ukrainian
Default : No
Forced : No

Audio #4
ID : 5
Format : AC-3
Format/Info : Audio Coding 3
Commercial name : Dolby Digital
Codec ID : A_AC3
Duration : 2 h 4 min
Bit rate mode : Constant
Bit rate : 448 kb/s
Channel(s) : 6 channels
Channel layout : L R C LFE Ls Rs
Sampling rate : 48.0 kHz
Frame rate : 31.250 FPS (1536 SPF)
Bit depth : 16 bits
Compression mode : Lossy
Stream size : 399 MiB (5%)
Language : English
Default : No
Forced : No

Text #1
ID : 6
Format : UTF-8
Codec ID : S_TEXT/UTF8
Codec ID/Info : UTF-8 Plain Text
Duration : 1 h 45 min
Bit rate : 0 b/s
Count of elements : 12
Stream size : 587 Bytes (0%)
Title : Forced
Language : Russian
Default : Yes
Forced : Yes

Text #2
ID : 7
Format : UTF-8
Codec ID : S_TEXT/UTF8
Codec ID/Info : UTF-8 Plain Text
Duration : 1 h 53 min
Bit rate : 48 b/s
Count of elements : 958
Stream size : 40.6 KiB (0%)
Title : Full
Language : Russian
Default : No
Forced : No

Text #3
ID : 8
Format : UTF-8
Codec ID : S_TEXT/UTF8
Codec ID/Info : UTF-8 Plain Text
Duration : 1 h 53 min
Bit rate : 48 b/s
Count of elements : 958
Stream size : 40.2 KiB (0%)
Title : Full
Language : Ukrainian
Default : No
Forced : No

Text #4
ID : 9
Format : UTF-8
Codec ID : S_TEXT/UTF8
Codec ID/Info : UTF-8 Plain Text
Duration : 1 h 49 min
Bit rate : 33 b/s
Count of elements : 965
Stream size : 26.8 KiB (0%)
Title : Full
Language : English
Default : No
Forced : No

Text #5
ID : 10
Format : UTF-8
Codec ID : S_TEXT/UTF8
Codec ID/Info : UTF-8 Plain Text
Duration : 2 h 4 min
Bit rate : 43 b/s
Count of elements : 1416
Stream size : 39.3 KiB (0%)
Title : SDH
Language : English
Default : No
Forced : No

piratbit.org



Скачать Человек-невидимка через торрент http://c.radikal.ru/c21/2003/40/95082b081655.jpg Скачать фильм Человек-невидимка через торрент бесплантно в хорошем качестве Описание: На первый взгляд жизнь Сесилии кажется безупречной: огромный дом, бойфренд - гениальный ученый-миллионер. Но никто не знает, что ... 9.7 10 20
Info! Золотая раздача, скачанное не засчитывается.
Торрент: Зарегистрирован [2020-03-24 20:49] · скачан: 499 раз
Статус: √ проверено
Размер: 8.63 GB
Как cкачать? Как скачать Человек-невидимка через торрент | qTorrent

% Раздел Тема Автор DL S | L
Фильмы 2019-2020 [DVDrip, WEB-DLRip, HDrip] (DUB, MVO) [ 2.18 GB ] Человек-невидимка / The Invisible Man [2020 WEB-DLRip] +MVO [HDRezka Studio] bober100 Скачать
42 | 0
Фильмы 2019-2020 [DVDrip, WEB-DLRip, HDrip] (DUB, MVO) [ 1.46 GB ] Человек-невидимка / The Invisible Man [2020 WEB-DLRip] bober100 Скачать
72 | 0
Фильмы (WEB-DL 720p, 1080p) [ 8.57 GB ] Человек-невидимка / The Invisible Man [2020 WEB-DL 1080p] +MVO [HDRezka Studio] bober100 Скачать
174 | 7
Фильмы 2019-2020 [DVDrip, WEB-DLRip, HDrip] (DUB, MVO) [ 2.07 GB ] Человек-невидимка / The Invisible Man [2020 WEB-DLRip] MVO [HDrezka Studio] +DUB bober100 Скачать
29 | 0
Фильмы 2019-2020 [DVDrip, WEB-DLRip, HDrip] (DUB, MVO) [ 1.43 GB ] Человек-невидимка / The Invisible Man [2020 WEB-DLRip] MVO [HDrezka Studio] bober100 Скачать
33 | 0
Классика зарубежного кино [ 710 MB ] Человек - невидимка / The Invisible Man [1933 DVDRip] [DVO] killermax2013 Скачать
1 | 0
Зарубежные сериалы [ 17.54 GB ] Человек-невидимка / The Invisible Man / Сезон: 1-2 [2000-2002 DVDRip PDTVRip + оригинал] markfiter Скачать
1 | 0

28-11-2019 20:33  

Отключить всю рекламу на сайте

25-03-2020 05:53 Человек-невидимка Скачать торрент  

Слабенький фильмpiratbit.org



25-03-2020 10:24 Человек-невидимка Скачать торрент  

anton75 писал(а):

Слабенький фильм

,а откуда тогда такой рейтинг!?piratbit.org



25-03-2020 17:45 Человек-невидимка Скачать торрент  

Еле досмотрел-муть полная. piratbit.org



26-03-2020 08:59 Человек-невидимка Скачать торрент  

anton75 писал(а):

Слабенький фильм

На кинопоиске больше положительных отзывов о фильме...piratbit.org



27-03-2020 14:20 Человек-невидимка Скачать торрент  

HAPKOMAH писал(а):

anton75 писал(а):

Слабенький фильм

На кинопоиске больше положительных отзывов о фильме...

Никогда не ориентируюсь на кинопоискpiratbit.org



    Дорогой пользователь! Огромная просьба, поблагодарите релизера, оцените раздачу и оставьте свои комментарий, если Вы скачали Человек-невидимка через торрент бесплатно! Внесите свою лепту в развитие PiratBit!
    Комментировать посты могут только пользователи прошедшие не сложную регистрацию
    Показать сообщения:    

    Человек-невидимка через торрент
    Скачать бесплатно Человек-невидимка
    Человек-невидимка скачать торрент
    Человек-невидимка смотреть онлайн
    Cкачать фильм Человек-невидимка бесплатно
    Человек-невидимка скачать торрент в хорошем качестве
    Человек-невидимка смотреть онлайн бесплатно в хорошем качестве


    Вы не можете начинать темы
    Вы не можете отвечать на сообщения
    Вы не можете редактировать свои сообщения
    Вы не можете удалять свои сообщения
    Вы не можете голосовать в опросах
    Вы не можете прикреплять файлы к сообщениям
    Вы можете скачивать файлы