Ссылка на приватное зеркало всего за 1$. Внимание количество ограничено!!!

iTunes

iTunes

iTunes

1

iTunes

iTunes

iTunes

iTunes

iTunes

30
pack

$ от Little Big

ВАЖНО

!!Акция!!

Alien_RageХит недели

RePack

Resident Evil 21

ИГРА 18+

pack

RePack

jed

!!Акция!!

Alien_Rage

RePack

fifa19

RePack

Assassins Creed: Odyssey

RePack

NEED FOR SPEED™ PAYBACK

4 сезон

9 сезон

Бесстыжие 9 сезон

Все сериалы

все сериалы на PB.wtf

RePack

FAR CRY 5
  

Рождество на двоих / Last Christmas (Пол Фиг) [2019, драма, мелодрама, комедия, BDRip-AVC] DUB [Лицензия BD EUR] piratbit.org

Рождество на двоих через торрент piratbit.org

Раздают: 1 [ 0 KB/s ]
Размер: 2.18 GB | Добавлен: 3 мес. 9 д. назад | Торрент скачан:71 раз
Скачать  

25-03-2020 03:22 Рождество на двоих Скачать торрент  

Рождество на двоих | Last Christmas
Год выпуска: 2019
Страна: Великобритания, США
Студия: Calamity Films, Feigco Entertainment, Perfect World Pictures
Жанр: драма, мелодрама, комедия
Продолжительность: 01:42:49
Перевод: Дублированный | Лицензия BD EUR
Субтитры: Русские (Forced, full), английские

Режиссер: Пол Фиг

rating

В ролях: Мэдисон Инголдсби, Эмма Томпсон, Борис Исакович, Люси Миллер, Эмилия Кларк, Макс Болдри, Маргарет Клуни, Джон-Люк Робертс, Мишель Йео, Билал Зафар, Генри Голдинг, Ребекка Рут, Лидия Леонард, Патти ЛюПон

Описание: Кейт работает в магазине рождественских товаров, злоупотребляет выпивкой и давно бросила переживать из-за собственной жизни. Но всё меняется после знакомства с милым и очаровательным Томом.

Качество: BDRip-AVC
Формат: MKV

Видео: 1024x512 (2,000:1), 23,976 fps, MPEG-4 AVC ~ 2136 Kbps avg, 0.170 bit/pixel
Аудио#1: AC3, 48 kHz, 6 ch, ~448.00 kbps avg | русский | Blu-ray EUR
Аудио#2: AC3, 48 kHz, 6 ch, ~448.00 kbps avg | английский | Оригинал
скриншот  скриншот  скриншот  скриншот  скриншот  

Общее
Уникальный идентификатор : 42905364730623799869378961643775594555 (0x204745CDC38876C9A28B8009DB92103B)
Полное имя : Last.Christmas.2019.BDRip.x264.2.18Gb.mkv
Формат : Matroska
Версия формата : Version 4
Размер файла : 2,18 Гбайт
Продолжительность : 1 ч. 42 м.
Общий поток : 3035 Кбит/сек
Название фильма : Рождество на двоих / Last Christmas (2019)
Дата кодирования : UTC 2020-03-25 02:06:06
Программа кодирования : mkvmerge v41.0.0 ('Smarra') 64-bit
Библиотека кодирования : libebml v1.3.9 + libmatroska v1.5.2
Обложка : Yes
Attachments : cover.jpg

Видео
Идентификатор : 1
Формат : AVC
Формат/Информация : Advanced Video Codec
Профиль формата : High@L4.1
Настройки формата : CABAC / 9 Ref Frames
Параметр CABAC формата : Да
Параметр RefFrames формата : 9 кадров
Идентификатор кодека : V_MPEG4/ISO/AVC
Продолжительность : 1 ч. 42 м.
Битрейт : 2136 Кбит/сек
Ширина : 1024 пикселя
Высота : 512 пикселей
Соотношение сторон : 2,000
Режим частоты кадров : Постоянный
Частота кадров : 23,976 (24000/1001) кадра/сек
Цветовое пространство : YUV
Субдискретизация насыщенности : 4:2:0
Битовая глубина : 8 бит
Тип развёртки : Прогрессивная
Бит/(Пиксели*Кадры) : 0.170
Размер потока : 1,53 Гбайт (70%)
Заголовок : #stillet
Библиотека кодирования : x264 core 152 r2851bm ba24899
Настройки программы : cabac=1 / ref=9 / deblock=1:-3:-3 / analyse=0x3:0x113 / me=umh / subme=11 / psy=1 / psy_rd=1.00:0.15 / mixed_ref=1 / me_range=32 / chroma_me=1 / trellis=2 / 8x8dct=1 / cqm=0 / deadzone=21,11 / fast_pskip=0 / chroma_qp_offset=-3 / threads=8 / lookahead_threads=3 / sliced_threads=0 / nr=0 / decimate=0 / interlaced=0 / bluray_compat=0 / constrained_intra=0 / bframes=10 / b_pyramid=2 / b_adapt=2 / b_bias=0 / direct=3 / weightb=1 / open_gop=0 / weightp=2 / keyint=240 / keyint_min=23 / scenecut=40 / intra_refresh=0 / rc_lookahead=40 / rc=2pass / mbtree=0 / bitrate=2136 / ratetol=1.0 / qcomp=0.60 / qpmin=0 / qpmax=69 / qpstep=4 / cplxblur=20.0 / qblur=0.5 / vbv_maxrate=50000 / vbv_bufsize=62500 / nal_hrd=none / filler=0 / ip_ratio=1.40 / pb_ratio=1.30 / aq=1:1.00
Язык : English
Default : Да
Forced : Нет

Аудио #1
Идентификатор : 2
Формат : AC-3
Формат/Информация : Audio Coding 3
Коммерческое название : Dolby Digital
Идентификатор кодека : A_AC3
Продолжительность : 1 ч. 42 м.
Вид битрейта : Постоянный
Битрейт : 448 Кбит/сек
Каналы : 6 каналов
ChannelLayout : L R C LFE Ls Rs
Частота : 48,0 КГц
Частота кадров : 31,250 кадров/сек (1536 SPF)
Метод сжатия : С потерями
Размер потока : 329 Мбайт (15%)
Заголовок : Blu-ray EUR
Язык : Russian
Default : Да
Forced : Нет

Аудио #2
Идентификатор : 3
Формат : AC-3
Формат/Информация : Audio Coding 3
Коммерческое название : Dolby Digital
Идентификатор кодека : A_AC3
Продолжительность : 1 ч. 42 м.
Вид битрейта : Постоянный
Битрейт : 448 Кбит/сек
Каналы : 6 каналов
ChannelLayout : L R C LFE Ls Rs
Частота : 48,0 КГц
Частота кадров : 31,250 кадров/сек (1536 SPF)
Метод сжатия : С потерями
Размер потока : 329 Мбайт (15%)
Заголовок : Original
Язык : English
Default : Нет
Forced : Нет

Текст #1
Идентификатор : 4
Формат : UTF-8
Идентификатор кодека : S_TEXT/UTF8
Идентификатор кодека/Информация : UTF-8 Plain Text
Продолжительность : 1 ч. 41 м.
Битрейт : 2 бит/сек
ElementCount : 40
Размер потока : 1,77 Кбайт (0%)
Заголовок : Forced
Язык : Russian
Default : Да
Forced : Да

Текст #2
Идентификатор : 5
Формат : UTF-8
Идентификатор кодека : S_TEXT/UTF8
Идентификатор кодека/Информация : UTF-8 Plain Text
Продолжительность : 1 ч. 41 м.
Битрейт : 100 бит/сек
ElementCount : 1445
Размер потока : 74,8 Кбайт (0%)
Заголовок : Full
Язык : Russian
Default : Нет
Forced : Нет

Текст #3
Идентификатор : 6
Формат : UTF-8
Идентификатор кодека : S_TEXT/UTF8
Идентификатор кодека/Информация : UTF-8 Plain Text
Продолжительность : 1 ч. 41 м.
Битрейт : 80 бит/сек
ElementCount : 1672
Размер потока : 60,0 Кбайт (0%)
Заголовок : Full
Язык : English
Default : Нет
Forced : Нет

Текст #4
Идентификатор : 7
Формат : UTF-8
Идентификатор кодека : S_TEXT/UTF8
Идентификатор кодека/Информация : UTF-8 Plain Text
Продолжительность : 1 ч. 42 м.
Битрейт : 84 бит/сек
ElementCount : 1792
Размер потока : 63,6 Кбайт (0%)
Заголовок : SDH
Язык : English
Default : Нет
Forced : Нет

Меню #1
00:00:00.000 : :Chapter 01
00:05:48.390 : :Chapter 02
00:10:26.960 : :Chapter 03
00:16:47.340 : :Chapter 04
00:23:20.941 : :Chapter 05
00:26:15.657 : :Chapter 06
00:29:39.236 : :Chapter 07
00:36:00.367 : :Chapter 08
00:40:51.991 : :Chapter 09
00:45:31.312 : :Chapter 10
00:49:55.618 : :Chapter 11
00:52:26.769 : :Chapter 12
00:58:10.821 : :Chapter 13
01:05:48.444 : :Chapter 14
01:10:31.185 : :Chapter 15
01:13:50.593 : :Chapter 16
01:19:31.225 : :Chapter 17
01:24:23.600 : :Chapter 18
01:30:42.812 : :Chapter 19
01:37:41.731 : :Chapter 20

Меню #2
00:00:00.097 : en:Chapter 01 / en:Chapter 01

piratbit.org



Скачать Рождество на двоих через торрент https://i111.fastpic.ru/big/2020/0129/02/e158184380f6726c06494c2c7db7cb02.jpg Скачать фильм Рождество на двоих через торрент бесплантно в хорошем качестве Описание: Кейт работает в магазине рождественских товаров, злоупотребляет выпивкой и давно бросила переживать из-за собственной жизни. Но ... 10 10 4
Торрент: Зарегистрирован [2020-03-25 03:22] · скачан: 71 раз
Статус: √ проверено
Размер: 2.18 GB
Как cкачать? Как скачать Рождество на двоих через торрент | qTorrent

% Раздел Тема Автор DL S | L
Фильмы [HD 720p, 1080p] (Хороший звук DUB, MVO) [ 4.96 GB ] Рождество на двоих / Last Christmas [2019 BDRip-HEVC 1080p ] DUB [] bober100 Скачать
1 | 0
Фильмы 2019-2020 [DVDrip, WEB-DLRip, HDrip] (DUB, MVO) [ 1.46 GB ] Рождество на двоих / Last Christmas [2019 BDRip] - [] Twi7ter Скачать
14 | 0
Фильмы (Blu-ray, BD-Remux, HDDVD) [ 41.87 GB ] Рождество на двоих / Last Christmas [2019 Blu-ray EUR 1080p] DUB [] bober100 Скачать
1 | 1
Фильмы 2019-2020 [DVDrip, WEB-DLRip, HDrip] (DUB, MVO) [ 746 MB ] Рождество на двоих / Last Christmas [2019 BDRip] DUB [ BD EUR] bober100 Скачать
1 | 0
Фильмы (Blu-ray, BD-Remux, HDDVD) [ 23.44 GB ] Рождество на двоих / Last Christmas [2019 BD Remux 1080p] DUB [] bober100 Скачать
1 | 0
Фильмы [HD 720p, 1080p] (Хороший звук DUB, MVO) [ 7.01 GB ] Рождество на двоих / Last Christmas [2019 BDRip 720p] DUB [] bober100 Скачать
2 | 0
Фильмы 2019-2020 [DVDrip, WEB-DLRip, HDrip] (DUB, MVO) [ 1.46 GB ] Рождество на двоих / Last Christmas [2019 BDRip] DUB [ BD EUR] bober100 Скачать
1 | 0

28-11-2019 20:33  

Отключить всю рекламу на сайте

    Дорогой пользователь! Огромная просьба, поблагодарите релизера, оцените раздачу и оставьте свои комментарий, если Вы скачали Рождество на двоих через торрент бесплатно! Внесите свою лепту в развитие PiratBit!
    Комментировать посты могут только пользователи прошедшие не сложную регистрацию
    Показать сообщения:    

    Рождество на двоих через торрент
    Скачать бесплатно Рождество на двоих
    Рождество на двоих скачать торрент
    Рождество на двоих смотреть онлайн
    Cкачать фильм Рождество на двоих бесплатно
    Рождество на двоих скачать торрент в хорошем качестве
    Рождество на двоих смотреть онлайн бесплатно в хорошем качестве


    Вы не можете начинать темы
    Вы не можете отвечать на сообщения
    Вы не можете редактировать свои сообщения
    Вы не можете удалять свои сообщения
    Вы не можете голосовать в опросах
    Вы не можете прикреплять файлы к сообщениям
    Вы можете скачивать файлы