Ссылка на приватное зеркало всего за 1$. Внимание количество ограничено!!!

iTunes

iTunes

iTunes

1

iTunes

iTunes

iTunes

iTunes

iTunes

30
pack

Новость дня

ВАЖНО

!!Акция!!

Alien_RageХит недели

RePack

Resident Evil 21

ИГРА 18+

pack

RePack

jed

!!Акция!!

Alien_Rage

RePack

fifa19

RePack

Assassins Creed: Odyssey

RePack

NEED FOR SPEED™ PAYBACK

4 сезон

9 сезон

Бесстыжие 9 сезон

Все сериалы

все сериалы на PB.wtf

RePack

FAR CRY 5
  

Вне игры / The Way Back (Гэвин О Коннор) [2020, драма, спорт, WEB-DL 1080p] MVO [HDrezka Studio] piratbit.org

Вне игры через торрент piratbit.org

Раздают: 15 [ 1 MB/s ]
Размер: 7.84 GB | Добавлен: 6 д. назад | Торрент скачан:114 раз
Скачать  

25-03-2020 06:11 Вне игры Скачать торрент  

Вне игры | The Way Back
Год выпуска: 2020
Страна: США
Жанр: драма, спорт
Продолжительность: 01:48:22
Перевод: Профессиональный (многоголосый) | HDrezka Studio
Субтитры: английские (Full, SDH)

Режиссер: Гэвин О Коннор

rating

В ролях: Бен Аффлек, Янина Гаванкар, Микейла Уоткинс, Хэйз МакАртур, Да Винчи, Рейчал Карпани, Тодд Стэшвик, Марлин Форте, Инка Кито, Глинн Тёрмен

Описание: Джек Каннингэм в школе был восходящей баскетбольной звездой, но в какой-то момент покончил со спортом. Из-за пристрастия к таблеткам и алкоголю он в одночасье лишился всего - славы, денег и семьи. Вскоре жизнь даёт Джеку второй шанс - он берётся тренировать баскетбольную команду своей родной школы, которую все считают откровенными неудачниками.

Качество: WEB-DL 1080p
Формат: MKV

Видео: AVC/H.264, 1920x800, ~9271 Кbps, 23,976 fps
Аудио 1: AC3, 6 ch, 448 Kbps - Русский
Аудио 2: E-AC3, 6 ch, 640 Kbps - Английский
скриншот  скриншот  скриншот  скриншот  

Общее
Уникальный идентификатор : 178979242871561057344969131464201299771 (0x86A625F8C246FCC2AC704A2BC15F673B)
Полное имя : The Way Back.2020.WEB-DL.1080p.W.mkv
Формат : Matroska
Версия формата : Version 4
Размер файла : 7,84 Гбайт
Продолжительность : 1 ч. 48 м.
Общий поток : 10,4 Мбит/сек
Название фильма : The Way Back.2020.WEB-DL.1080p.W
Дата кодирования : UTC 2020-03-29 22:45:13
Программа кодирования : mkvmerge v23.0.0 ('The Bride Said No') 64-bit
Библиотека кодирования : libebml v1.3.6 + libmatroska v1.4.9

Видео
Идентификатор : 1
Формат : AVC
Формат/Информация : Advanced Video Codec
Профиль формата : High@L4
Настройки формата : CABAC / 4 Ref Frames
Параметр CABAC формата : Да
Параметр RefFrames формата : 4 кадра
Идентификатор кодека : V_MPEG4/ISO/AVC
Продолжительность : 1 ч. 48 м.
Вид битрейта : Постоянный
Битрейт : 9271 Кбит/сек
Номинальный битрейт : 10000 Кбит/сек
Ширина : 1920 пикселей
Высота : 800 пикселей
Соотношение сторон : 2,40:1
Режим частоты кадров : Постоянный
Частота кадров : 23,976 (24000/1001) кадра/сек
Цветовое пространство : YUV
Субдискретизация насыщенности : 4:2:0
Битовая глубина : 8 бит
Тип развёртки : Прогрессивная
Бит/(Пиксели*Кадры) : 0.252
Размер потока : 7,02 Гбайт (89%)
Язык : English
Default : Да
Forced : Нет
Цветовой диапазон : Limited
Основные цвета : BT.709
Характеристики трансфера : BT.709
Коэффициенты матрицы : BT.709

Аудио #1
Идентификатор : 2
Формат : AC-3
Формат/Информация : Audio Coding 3
Коммерческое название : Dolby Digital
Идентификатор кодека : A_AC3
Продолжительность : 1 ч. 48 м.
Вид битрейта : Постоянный
Битрейт : 448 Кбит/сек
Каналы : 6 каналов
ChannelLayout : L R C LFE Ls Rs
Частота : 48,0 КГц
Частота кадров : 31,250 кадров/сек (1536 SPF)
Метод сжатия : С потерями
Размер потока : 347 Мбайт (4%)
Заголовок : MVO (HDrezka Studio)
Язык : Russian
ServiceKind : Complete Main
Default : Да
Forced : Нет

Аудио #2
Идентификатор : 3
Формат : E-AC-3
Формат/Информация : Enhanced AC-3
Коммерческое название : Dolby Digital Plus
Идентификатор кодека : A_EAC3
Продолжительность : 1 ч. 48 м.
Вид битрейта : Постоянный
Битрейт : 640 Кбит/сек
Каналы : 6 каналов
ChannelLayout : L R C LFE Ls Rs
Частота : 48,0 КГц
Частота кадров : 31,250 кадров/сек (1536 SPF)
Метод сжатия : С потерями
Размер потока : 496 Мбайт (6%)
Язык : English
ServiceKind : Complete Main
Default : Нет
Forced : Нет

Текст #1
Идентификатор : 4
Формат : UTF-8
Идентификатор кодека : S_TEXT/UTF8
Идентификатор кодека/Информация : UTF-8 Plain Text
Продолжительность : 1 ч. 39 м.
Битрейт : 68 бит/сек
ElementCount : 1713
Размер потока : 50,0 Кбайт (0%)
Язык : English
Default : Нет
Forced : Нет

Текст #2
Идентификатор : 5
Формат : UTF-8
Идентификатор кодека : S_TEXT/UTF8
Идентификатор кодека/Информация : UTF-8 Plain Text
Продолжительность : 1 ч. 40 м.
Битрейт : 77 бит/сек
ElementCount : 1855
Размер потока : 57,1 Кбайт (0%)
Заголовок : SDH
Язык : English
Default : Нет
Forced : Нет

piratbit.org



Скачать Вне игры через торрент http://c.radikal.ru/c22/2003/59/0e48c68ec8d6.jpg Скачать фильм Вне игры через торрент бесплантно в хорошем качестве Описание: Джек Каннингэм в школе был восходящей баскетбольной звездой, но в какой-то момент покончил со спортом. Из-за пристрастия к ... 9 10 11
Торрент: Зарегистрирован [2020-03-30 04:34] · скачан: 114 раз
Статус: √ проверено
Размер: 7.84 GB
Как cкачать? Как скачать Вне игры через торрент | qTorrent

% Раздел Тема Автор DL S | L
Фильмы (WEB-DL 720p, 1080p) [ 4.79 GB ] Вне игры / The Way Back [2020 WEB-DL 720p] MVO [HDrezka Studio] bober100 Скачать
17 | 0
T Фильмы (мультфильмы) cо спонсором показа (Новинки AVI/MKV) [ 2.05 GB ] Вне игры / The Way Back [2020 WEB-DLRip] MVO [AlphaProject] bober100 Скачать
11 | 0
T Фильмы (мультфильмы) cо спонсором показа (Новинки AVI/MKV) [ 1.37 GB ] Вне игры / The Way Back [2020 WEB-DLRip] MVO [AlphaProject] bober100 Скачать
22 | 0


Последний раз редактировалось: bober100 (2020-03-30 04:34), всего редактировалось 1 раз

28-11-2019 20:33  

Отключить всю рекламу на сайте

    Дорогой пользователь! Огромная просьба, поблагодарите релизера, оцените раздачу и оставьте свои комментарий, если Вы скачали Вне игры через торрент бесплатно! Внесите свою лепту в развитие PiratBit!
    Комментировать посты могут только пользователи прошедшие не сложную регистрацию
    Показать сообщения:    

    Вне игры через торрент
    Скачать бесплатно Вне игры
    Вне игры скачать торрент
    Вне игры смотреть онлайн
    Cкачать фильм Вне игры бесплатно
    Вне игры скачать торрент в хорошем качестве
    Вне игры смотреть онлайн бесплатно в хорошем качестве


    Вы не можете начинать темы
    Вы не можете отвечать на сообщения
    Вы не можете редактировать свои сообщения
    Вы не можете удалять свои сообщения
    Вы не можете голосовать в опросах
    Вы не можете прикреплять файлы к сообщениям
    Вы можете скачивать файлы