Ссылка на приватное зеркало всего за 1$. Внимание количество ограничено!!!

iTunes

iTunes

iTunes

1

iTunes

iTunes

iTunes

iTunes

iTunes

30
pack

Новость дня

ВАЖНО

!!Акция!!

Alien_RageХит недели

RePack

Resident Evil 21

ИГРА 18+

pack

RePack

jed

!!Акция!!

Alien_Rage

RePack

fifa19

RePack

Assassins Creed: Odyssey

RePack

NEED FOR SPEED™ PAYBACK

4 сезон

9 сезон

Бесстыжие 9 сезон

Все сериалы

все сериалы на PB.wtf

RePack

FAR CRY 5
  

Вперёд / Onward (Дэн Скэнлон) [2020, Мультфильм, фэнтези, комедия, приключения, семейный, WEB-DL 1080p] DUB [Line] +MVO [HDrezka Studio] piratbit.org

Вперёд через торрент piratbit.org

Раздают: 64 [ 9 MB/s ] Качают: 2 [ 24 KB/s ]
Размер: 6.83 GB | Добавлен: 4 д. назад | Торрент скачан:228 раз
Скачать  

25-03-2020 09:39 Вперёд Скачать торрент  

Вперёд | Onward
Год выпуска: 2020
Страна: США
Жанр: Мультфильм, фэнтези, комедия, приключения, семейный
Продолжительность: 01:42:22
Перевод:
Дублированный | Line
Профессиональный (многоголосый) | HDrezka Studio
Субтитры: Английские (SDH)

Режиссер: Дэн Скэнлон

rating

В ролях: Том Холланд (II), Крис Прэтт, Джулия Луис-Дрейфус, Джон Ратценбергер, Октавия Спенсер, Мэл Родригес, Лина Уэйте, Али Вонг, Грей ДеЛайл, Трейси Ульман

Описание: Братья-эльфы Иэн и Барли Лайтфуты живут в волшебном мире, населенном троллями, гоблинами, гномами, кентаврами и единорогами. Когда-то их мир переполняла магия, но те времена прошли, и теперь сказочные существа летают на самолетах, пользуются автомобилями, и ведут в целом прозаичную жизнь. Однако неожиданная находка приводит к тому, что братья решают отправиться в захватывающее путешествие на поиски настоящего волшебства из древних преданий.

Качество: WEB-DL 1080p
Формат: MKV

Видео: MPEG-4 AVC, 7949 Кбит/с, 1920x800
Аудио#1: Русский (AC3, 2 ch, 384 Кбит/с)
Аудио#2: Русский (AC3, 6 ch, 384 Кбит/с)
Аудио#3: английский (AC3, 6 ch, 640 Кбит/с)
скриншот  скриншот  скриншот  скриншот  скриншот  

Общее
Уникальный идентификатор : 248548744222028029753551861287401531935 (0xBAFCBF35BC8EF19285E4B945221FAA1F)
Полное имя : C:\Вперёд. 2020. DUB.MVO.1080pmkv.mkv
Формат : Matroska
Версия формата : Version 2
Размер файла : 6,83 Гбайт
Продолжительность : 1 ч. 42 м.
Общий поток : 9547 Кбит/сек
Название фильма : Onward
Дата кодирования : UTC 2020-03-30 16:29:13
Программа кодирования : mkvmerge v3.3.0 ('Language') built on Mar 24 2010 14:59:24
Библиотека кодирования : libebml v0.8.0 + libmatroska v0.9.0

Видео
Идентификатор : 1
Формат : AVC
Формат/Информация : Advanced Video Codec
Профиль формата : High@L4
Настройки формата : CABAC / 4 Ref Frames
Параметр CABAC формата : Да
Параметр RefFrames формата : 4 кадра
Идентификатор кодека : V_MPEG4/ISO/AVC
Продолжительность : 1 ч. 42 м.
Вид битрейта : Постоянный
Битрейт : 7949 Кбит/сек
Номинальный битрейт : 10000 Кбит/сек
Ширина : 1920 пикселей
Высота : 800 пикселей
Соотношение сторон : 2,40:1
Режим частоты кадров : Постоянный
Частота кадров : 23,976 (24000/1001) кадра/сек
Цветовое пространство : YUV
Субдискретизация насыщенности : 4:2:0
Битовая глубина : 8 бит
Тип развёртки : Прогрессивная
Бит/(Пиксели*Кадры) : 0.216
Размер потока : 5,68 Гбайт (83%)
Язык : English
Default : Нет
Forced : Нет
Цветовой диапазон : Limited
Основные цвета : BT.709
Характеристики трансфера : BT.709
Коэффициенты матрицы : BT.709

Аудио #1
Идентификатор : 2
Формат : AC-3
Формат/Информация : Audio Coding 3
Коммерческое название : Dolby Digital
Идентификатор кодека : A_AC3
Продолжительность : 1 ч. 42 м.
Вид битрейта : Постоянный
Битрейт : 384 Кбит/сек
Каналы : 2 канала
ChannelLayout : L R
Частота : 48,0 КГц
Частота кадров : 31,250 кадров/сек (1536 SPF)
Битовая глубина : 16 бит
Метод сжатия : С потерями
Размер потока : 281 Мбайт (4%)
ServiceKind/String : Complete Main
Default : Да
Forced : Да

Аудио #2
Идентификатор : 3
Формат : AC-3
Формат/Информация : Audio Coding 3
Коммерческое название : Dolby Digital
Идентификатор кодека : A_AC3
Продолжительность : 1 ч. 42 м.
Вид битрейта : Постоянный
Битрейт : 384 Кбит/сек
Каналы : 6 каналов
ChannelLayout : L R C LFE Ls Rs
Частота : 48,0 КГц
Частота кадров : 31,250 кадров/сек (1536 SPF)
Битовая глубина : 16 бит
Метод сжатия : С потерями
Размер потока : 281 Мбайт (4%)
Заголовок : HDRezka Studio
Язык : Russian
ServiceKind/String : Complete Main
Default : Нет
Forced : Нет

Аудио #3
Идентификатор : 4
Формат : AC-3
Формат/Информация : Audio Coding 3
Коммерческое название : Dolby Digital
Идентификатор кодека : A_AC3
Продолжительность : 1 ч. 42 м.
Вид битрейта : Постоянный
Битрейт : 640 Кбит/сек
Каналы : 6 каналов
ChannelLayout : L R C LFE Ls Rs
Частота : 48,0 КГц
Частота кадров : 31,250 кадров/сек (1536 SPF)
Битовая глубина : 16 бит
Метод сжатия : С потерями
Размер потока : 469 Мбайт (7%)
Язык : English
ServiceKind/String : Complete Main
Default : Нет
Forced : Нет

Текст
Идентификатор : 5
Формат : UTF-8
Идентификатор кодека : S_TEXT/UTF8
Идентификатор кодека/Информация : UTF-8 Plain Text
Заголовок : SDH
Язык : English
Default : Нет
Forced : Нет

Меню
00:00:00.000 : en:Studio Logo
00:00:49.000 : en:Long ago
00:03:04.000 : en:Title Sequence
00:03:09.000 : en:Ian's morning
00:05:03.000 : en:Officer Bronco comes to Ligjtfoots
00:07:03.000 : en:Ian meet Dad's friend
00:08:14.000 : en:Making a list
00:09:34.000 : en:Ian starts his day
00:12:44.000 : en:Ian misses his Dad
00:14:53.000 : en:A gift from Dad
00:19:17.000 : en:Ian is at his room
00:20:38.000 : en:Barley comes up with something
00:23:46.000 : en:Barley drives his car
00:25:34.000 : en:Learning magic
00:27:25.000 : en:The boys look for the Manticore
00:31:21.000 : en:The Manticore comes back
00:32:49.000 : en:Laurel worries about the boys
00:36:33.000 : en:Guinevere gets a trouble
00:39:34.000 : en:Ian tries magic again
00:42:48.000 : en:The Manticore talks to Laurel
00:44:00.000 : en:Ian drives Guinevere
00:47:48.000 : en:The spell wears off
00:51:43.000 : en:Barley argues with Ian
00:54:59.000 : en:Grecklin of the Pawn shop
00:56:07.000 : en:Bronco calls Laurel
00:57:24.000 : en:Raven's Point
01:03:06.000 : en:Bronco chases the boys
01:07:05.000 : en:The boys follow the birds
01:08:49.000 : en:Ian likes the spell
01:10:06.000 : en:Laurel encounters Pixie Dusters
01:11:12.000 : en:Barley talks about Dad
01:13:30.000 : en:The boys are in dangerous
01:15:58.000 : en:Back where they started
01:17:59.000 : en:Barley cannot give it up
01:20:26.000 : en:It's curse
01:22:44.000 : en:I am a mighty warrior
01:24:26.000 : en:Ian's decision
01:26:59.000 : en:What Ian see
01:30:07.000 : en:Ian back to his school
01:32:53.000 : en:End Credits

piratbit.org



Скачать Вперёд через торрент https://i5.imageban.ru/out/2020/03/25/b2ab7981315be70fcc474e7dcb7604b3.png Скачать фильм Вперёд через торрент бесплантно в хорошем качестве Описание: Братья-эльфы Иэн и Барли Лайтфуты живут в волшебном мире, населенном троллями, гоблинами, гномами, кентаврами и единорогами. ... 10 10 17
Info! Золотая раздача, скачанное не засчитывается.
Торрент: Зарегистрирован [2020-03-30 17:03] · скачан: 228 раз
Статус: √ проверено
Размер: 6.83 GB
Как cкачать? Как скачать Вперёд через торрент | qTorrent

% Раздел Тема Автор DL S | L
T Иностранные мультфильмы [ 2.15 GB ] Вперёд / Onward [2020 Мультфильм WEB-DLRip-AVC] DUB [Line] +MVO [HDrezka Studio] - ExKinoRay Enigma2010 Скачать
26 | 2
T Иностранные мультфильмы [ 1.73 GB ] Вперёд / Onward [2020 Мультфильм WEB-DLRip] DUB [Line] bober100 Скачать
28 | 2
x Фильмы (мультфильмы) cо спонсором показа (Новинки AVI/MKV) [ 1.37 GB ] Вперёд / Onward [2019 мультфильм WEB-DLRip] [Line] killermax2013 Скачать
51 | 0
T Фильмы (мультфильмы) cо спонсором показа (Новинки AVI/MKV) [ 6.09 GB ] Вперёд / Onward [2019 мультфильм WEB-DL 1080p] [Line] killermax2013 Скачать
47 | 0

28-11-2019 20:33  

Отключить всю рекламу на сайте

    Дорогой пользователь! Огромная просьба, поблагодарите релизера, оцените раздачу и оставьте свои комментарий, если Вы скачали Вперёд через торрент бесплатно! Внесите свою лепту в развитие PiratBit!
    Комментировать посты могут только пользователи прошедшие не сложную регистрацию
    Показать сообщения:    

    Вперёд через торрент
    Скачать бесплатно Вперёд
    Вперёд скачать торрент
    Вперёд смотреть онлайн
    Cкачать фильм Вперёд бесплатно
    Вперёд скачать торрент в хорошем качестве
    Вперёд смотреть онлайн бесплатно в хорошем качестве


    Вы не можете начинать темы
    Вы не можете отвечать на сообщения
    Вы не можете редактировать свои сообщения
    Вы не можете удалять свои сообщения
    Вы не можете голосовать в опросах
    Вы не можете прикреплять файлы к сообщениям
    Вы можете скачивать файлы