Ссылка на приватное зеркало всего за 1$. Внимание количество ограничено!!!

iTunes

iTunes

iTunes

1

iTunes

iTunes

iTunes

iTunes

iTunes

30
pack

Новость дня

ВАЖНО

!!Акция!!

Alien_RageХит недели

RePack

Resident Evil 21

ИГРА 18+

pack

RePack

jed

!!Акция!!

Alien_Rage

RePack

fifa19

RePack

Assassins Creed: Odyssey

RePack

NEED FOR SPEED™ PAYBACK

4 сезон

9 сезон

Бесстыжие 9 сезон

Все сериалы

все сериалы на PB.wtf

RePack

FAR CRY 5
  

Честь дракона 2 в 3Д / The Protector 2 3D (Прачья Пинкаю / Prachya Pinkaew) [2013, боевик, BDRip, 1080p] OverUnder / Вертикальная стереопара (MVO) piratbit.org

Честь дракона 2 в 3Д через торрент piratbit.org

Раздают: 3 [ 0 KB/s ]
Размер: 13.91 GB | Добавлен: 7 д. назад | Торрент скачан:7 раз
Скачать  

25-03-2020 14:17 Честь дракона 2 в 3Д Скачать торрент  

Честь дракона 2 / The Protector 2 / Tom yum goong 2

Год выпуска: 2013
Страна: Таиланд
Жанр: боевик
Продолжительность: 01:44:33

Перевод: Профессиональный многоголосый закадровый (официальный)
Русские субтитры: нет
Режиссер: Прачья Пинкаю / Prachya Pinkaew

В ролях: Тони Джа, Маррезе Крамп, Йанин Висмитананда, Винс Макилинг, Уджал Тхапа, Эдди Руис, Эдгар Варгас, Джон Данг, Джавед Эль Берни, Рэйден Интегра

Описание: Влиятельного владельца слоновьего заповедника Сучарта убивает неизвестный эксперт по боевым искусствам, использовавший три удара по смертельным для жизни точкам, и Кхам становится основным подозреваемым в убийстве, так как он был последним, кого видели на месте преступления. Ему пришлось бежать от властей, тем временем за ним начали охоту двойняшки — племянницы Сучарта. К счастью, его выручил сержант Марк, агент Интерпола, присланный из Сиднея для выполнения некоего секретного задания.
Хоть Кхам всё ещё в розыске, сам он пытается отыскать Кхона, слона, похищенного несколько дней назад, к которому относится как к собственному брату. Чем дольше он находится в бегах, там сильнее им начинает интересоваться тайная организация под предводительством криминального авторитета LC. Тот создал собственное секретное коллекционное «стойло», которое пополняет бойцами со всего мира. Его бойцы, «Двадцатая» и «Второй», намерены поймать Кхама, чтобы удовлетворить желания своего босса.
Дополнительная информация по релизу: Русская дорога получена вставкой вырезанных фраз из русской стерео в центр оригинала.

Сэмпл: http://sendfile.su/1552083

Качество: BDrip, 1080p
Контейнер: MKV
Формат 3D: OverUnder / Вертикальная стереопара
Порядок ракурсов: левый ракурс первый
Видео кодек: x264
Аудио кодек: AC3
Видео: AVC / High@L5.0 / 23,976 fps / 1920х2160 / 17,4 Мбит/сек
Аудио: Русский / AC3 / 48 KHz / 5.1 ch / 640 Кбит/сек(MVO) (перемонтаж стерео в 5.1 - Ash61)
Аудио 2: Английский / AC3 / 48 KHz / 5.1 ch / 640 Кбит/сек

ВНИМАНИЕ ! На встроенных ТВ-плеерах работать не будет!!!

ТВ Samsung в названии которого есть надпись Ultra HD , и LG Ultra HD 800 серии, LG C6P, Xiaomi Mi TV 2 воспроизводят полные стереопары встроенными плеерами
Железные плееры на которых воспроизводятся полные стереопары:Popcorn C-200 , Dune HD Smart D1 , Dune HD DUO , Dune HD Smart H1 , Dune HD Smart B1 , Dune HD Max , Dune HD TV-303D, Dune HD TV-102, Dune HD Base 3D, Philips HMP7001, Aura HD, MECOOL BB2, Zidoo x9s, Lake I Cloud, MiBox 3
Чтобы изображение было на весь экран в плеере выставляем, если рип 1920х1600 - то выставляем 2.35:1 , если 1920х2160 - то выставляем 16:9
Общее
Уникальный идентификатор : 226081420285969448803495856083580216803 (0xAA15B29DC45EB4B3B259D426712FE5E3)
Полное имя : E:\видео\The Protector 2.Rip by SeRoGa00.mkv
Формат : Matroska
Версия формата : Version 2
Размер файла : 13,9 Гбайт
Продолжительность : 1 ч. 44 м.
Общий поток : 19,0 Мбит/сек
Дата кодирования : UTC 2020-03-25 02:16:56
Программа кодирования : mkvmerge v3.4.0 ('Rapunzel') сборка от May 15 2010 09:38:20
Библиотека кодирования : libebml v0.8.0 + libmatroska v0.9.0

Видео
Идентификатор : 1
Формат : AVC
Формат/Информация : Advanced Video Codec
Профиль формата : High@L5.0
Параметр CABAC формата : Да
Параметр ReFrames формата : 4 кадра
Идентификатор кодека : V_MPEG4/ISO/AVC
Продолжительность : 1 ч. 44 м.
Битрейт : 17,4 Мбит/сек
Ширина : 1920 пикселей
Высота : 2160 пикселей
Соотношение сторон : 0,889
Частота кадров : 23,976 кадра/сек
Цветовое пространство : YUV
Субдискретизация насыщенности : 4:2:0
Битовая глубина : 8 бит
Тип развёртки : Прогрессивная
Бит/(Пиксели*Кадры) : 0.175
Размер потока : 12,7 Гбайт (91%)
Заголовок : Rip by SeRoGa00
Библиотека кодирования : x264 core 157 r2969 d4099dd
Настройки программы : cabac=1 / ref=4 / deblock=1:-3:-3 / analyse=0x3:0x113 / me=umh / subme=10 / psy=1 / psy_rd=1.00:0.15 / mixed_ref=1 / me_range=24 / chroma_me=1 / trellis=2 / 8x8dct=1 / cqm=0 / deadzone=21,11 / fast_pskip=1 / chroma_qp_offset=-3 / threads=12 / lookahead_threads=6 / sliced_threads=0 / nr=0 / decimate=0 / interlaced=0 / bluray_compat=0 / constrained_intra=0 / bframes=10 / b_pyramid=2 / b_adapt=2 / b_bias=0 / direct=3 / weightb=1 / open_gop=0 / weightp=2 / keyint=250 / keyint_min=23 / scenecut=40 / intra_refresh=0 / rc_lookahead=60 / rc=crf / mbtree=1 / crf=16.5 / qcomp=0.60 / qpmin=10 / qpmax=69 / qpstep=4 / vbv_maxrate=40000 / vbv_bufsize=40000 / crf_max=0.0 / nal_hrd=none / filler=0 / ip_ratio=1.40 / aq=1:1.00
Язык : English
Default : Нет
Forced : Нет

Аудио #1
Идентификатор : 2
Формат : AC-3
Формат/Информация : Audio Coding 3
Расширение режима : CM (complete main)
Параметр Endianness формата : Big
Идентификатор кодека : A_AC3
Продолжительность : 1 ч. 44 м.
Вид битрейта : Постоянный
Битрейт : 640 Кбит/сек
Каналы : 6 каналов
Расположение каналов : Front: L C R, Side: L R, LFE
Частота : 48,0 КГц
Битовая глубина : 16 бит
Метод сжатия : С потерями
Размер потока : 479 Мбайт (3%)
Язык : Russian
Default : Да
Forced : Нет

Аудио #2
Идентификатор : 3
Формат : AC-3
Формат/Информация : Audio Coding 3
Расширение режима : CM (complete main)
Параметр Endianness формата : Big
Идентификатор кодека : A_AC3
Продолжительность : 1 ч. 44 м.
Вид битрейта : Постоянный
Битрейт : 640 Кбит/сек
Каналы : 6 каналов
Расположение каналов : Front: L C R, Side: L R, LFE
Частота : 48,0 КГц
Битовая глубина : 16 бит
Метод сжатия : С потерями
Размер потока : 479 Мбайт (3%)
Язык : English
Default : Нет
Forced : Нет

Меню
00:00:00.000 : en:00:00:00.000
00:06:22.215 : en:00:06:22.215
00:15:06.030 : en:00:15:06.030
00:19:20.576 : en:00:19:20.576
00:27:36.363 : en:00:27:36.363
00:34:17.597 : en:00:34:17.597
00:37:16.151 : en:00:37:16.151
00:45:43.282 : en:00:45:43.282
00:49:53.073 : en:00:49:53.073
00:55:03.550 : en:00:55:03.550
01:04:49.010 : en:01:04:49.010
01:10:16.546 : en:01:10:16.546
01:16:22.787 : en:01:16:22.787
01:25:08.937 : en:01:25:08.937
01:33:46.204 : en:01:33:46.204
01:39:32.091 : en:01:39:32.091
скриншот  

скриншот  

скриншот  

скриншот  

скриншот  

скриншот  
piratbit.org



Скачать Честь дракона 2 в 3Д через торрент https://c.radikal.ru/c33/2003/66/3625b4f44cd9.png Скачать фильм Честь дракона 2 в 3Д через торрент бесплантно в хорошем качестве Описание: Влиятельного владельца слоновьего заповедника Сучарта убивает неизвестный эксперт по боевым искусствам, использовавший три удара ... 5 10 1
Торрент: Зарегистрирован [2020-03-25 14:17] · скачан: 7 раз
Статус: √ проверено
Размер: 13.91 GB
Как cкачать? Как скачать Честь дракона 2 в 3Д через торрент | qTorrent

28-11-2019 20:33  

Отключить всю рекламу на сайте

    Дорогой пользователь! Огромная просьба, поблагодарите релизера, оцените раздачу и оставьте свои комментарий, если Вы скачали Честь дракона 2 в 3Д через торрент бесплатно! Внесите свою лепту в развитие PiratBit!
    Комментировать посты могут только пользователи прошедшие не сложную регистрацию
    Показать сообщения:    

    Честь дракона 2 в 3Д через торрент
    Скачать бесплатно Честь дракона 2 в 3Д
    Честь дракона 2 в 3Д скачать торрент
    Честь дракона 2 в 3Д смотреть онлайн
    Cкачать фильм Честь дракона 2 в 3Д бесплатно
    Честь дракона 2 в 3Д скачать торрент в хорошем качестве
    Честь дракона 2 в 3Д смотреть онлайн бесплатно в хорошем качестве


    Вы не можете начинать темы
    Вы не можете отвечать на сообщения
    Вы не можете редактировать свои сообщения
    Вы не можете удалять свои сообщения
    Вы не можете голосовать в опросах
    Вы не можете прикреплять файлы к сообщениям
    Вы можете скачивать файлы