Ссылка на приватное зеркало всего за 1$. Внимание количество ограничено!!!

iTunes

iTunes

iTunes

1

iTunes

iTunes

iTunes

iTunes

iTunes

30
pack

Новость дня

ВАЖНО

!!Акция!!

Alien_RageХит недели

RePack

Resident Evil 21

ИГРА 18+

pack

RePack

jed

!!Акция!!

Alien_Rage

RePack

fifa19

RePack

Assassins Creed: Odyssey

RePack

NEED FOR SPEED™ PAYBACK

4 сезон

9 сезон

Бесстыжие 9 сезон

Все сериалы

все сериалы на PB.wtf

RePack

FAR CRY 5
  

Бездна / The Deep (Питер Йетс) [1977 г., триллер, детектив, приключения, BDRip 720p / 60 FPS, Авторский (одноголосый закадровый)] от R.G. HD-Films piratbit.org

Бездна через торрент piratbit.org

Раздают: 12 [ 0 KB/s ]
Размер: 3.88 GB | Добавлен: 9 д. назад | Торрент скачан:61 раз
Скачать  

25-03-2020 15:48 Бездна Скачать торрент  

Бездна / The Deep
Год выпуска: 1977
Страна: США
Жанр: триллер, детектив, приключения
Продолжительность: 02:02:30
Перевод: Авторский (одноголосый закадровый) Горчаков

Режиссер: Питер Йетс

Бюджет: $9 000 000
Премьера в мире: 17 июня 1977

rating

В ролях: Роберт Шоу, Жаклин Биссет, Ник Нолти, Луис Госсет мл., Эли Уоллах, Дик Энтони Уильямс, Эрл Мэйнард, Боб Майнор, Тедди Таккер, Роберт Тессьер

Описание: Супруги Гейл и Дэвид проводят отпуск на экзотическом бермудском острове. Во время подводной охоты им достается роскошная и опасная добыча: они находят затонувший испанский корабль, который набит несметными сокровищами.

Искатели приключений и не подозревают, с чем им предстоит столкнуться в погоне за кладом. В конце концов, они оказываются на краю бездны, где любое неверное движение может стоить жизни.


Качество: BDRip 720p / 60 FPS
Формат: MKV
Видео кодек: H.264
Аудио кодек: AC3
Видео: x264, 1280 x 536 ( 2,40:1 ), 4337 kbps, 60,000 fps, ( 0.105 bpp)
Аудио#1: Русский, AC-3, 48.0 KHz, 2 ch, 192 Kbps ( AVO ( В.Горчаков ))
Релиз от:

скриншот   скриншот   скриншот   скриншот   скриншот   скриншот  Автор рипа: slaventi-69
x264 [info]: frame I:2363 Avg QP:15.80 size: 87536
x264 [info]: frame P:116563 Avg QP:18.61 size: 20774
x264 [info]: frame B:322127 Avg QP:21.47 size: 4213
x264 [info]: consecutive B-frames: 3.6% 6.2% 13.1% 13.8% 58.0% 5.5%


Общее
Уникальный идентификатор : 119213367557097971201275558689218074348 (0x59AFA8D0BA858946C1E3F8DF590196EC)
Полное имя : F:\The.Deep.(1977).BDRip.720p.(60 Fps).mkv
Формат : Matroska
Версия формата : Version 4
Размер файла : 3,88 Гбайт
Продолжительность : 2 ч. 2 м.
Общий поток : 4533 Кбит/сек
Название фильма : Бездна / The Deep (1977) BDRip 720p (60 Fps)
Дата кодирования : UTC 2020-03-25 11:10:17
Программа кодирования : mkvmerge v42.0.0 ('Overtime') 64-bit
Библиотека кодирования : libebml v1.3.10 + libmatroska v1.5.2

Видео
Идентификатор : 1
Формат : AVC
Формат/Информация : Advanced Video Codec
Профиль формата : High@L4.1
Настройки формата : CABAC / 8 Ref Frames
Параметр CABAC формата : Да
Параметр RefFrames формата : 8 кадров
Идентификатор кодека : V_MPEG4/ISO/AVC
Продолжительность : 2 ч. 2 м.
Битрейт : 4337 Кбит/сек
Ширина : 1280 пикселей
Высота : 536 пикселей
Соотношение сторон : 2,40:1
Режим частоты кадров : Постоянный
Частота кадров : 60,000 кадров/сек
Цветовое пространство : YUV
Субдискретизация насыщенности : 4:2:0
Битовая глубина : 8 бит
Тип развёртки : Прогрессивная
Бит/(Пиксели*Кадры) : 0.105
Размер потока : 3,71 Гбайт (96%)
Заголовок : slaventi-69 ( R.G. HD-Films | 60 fps )
Библиотека кодирования : x264 core 130 r2273 b3065e6
Настройки программы : cabac=1 / ref=8 / deblock=1:-1:-1 / analyse=0x3:0x133 / me=umh / subme=9 / psy=1 / psy_rd=1.00:0.00 / mixed_ref=1 / me_range=26 / chroma_me=1 / trellis=2 / 8x8dct=1 / cqm=0 / deadzone=21,11 / fast_pskip=0 / chroma_qp_offset=-2 / threads=4 / lookahead_threads=1 / sliced_threads=0 / nr=0 / decimate=1 / interlaced=0 / bluray_compat=0 / constrained_intra=0 / bframes=5 / b_pyramid=2 / b_adapt=2 / b_bias=0 / direct=3 / weightb=1 / open_gop=0 / weightp=2 / keyint=250 / keyint_min=25 / scenecut=40 / intra_refresh=0 / rc_lookahead=50 / rc=crf / mbtree=1 / crf=16.5 / qcomp=0.60 / qpmin=0 / qpmax=69 / qpstep=4 / ip_ratio=1.40 / aq=1:1.00
Язык : English
Default : Да
Forced : Нет

Аудио
Идентификатор : 2
Формат : AC-3
Формат/Информация : Audio Coding 3
Коммерческое название : Dolby Digital
Идентификатор кодека : A_AC3
Продолжительность : 2 ч. 2 м.
Вид битрейта : Постоянный
Битрейт : 192 Кбит/сек
Каналы : 2 канала
Channel layout : L R
Частота : 48,0 КГц
Частота кадров : 31,250 кадров/сек (1536 SPF)
Битовая глубина : 16 бит
Метод сжатия : С потерями
Размер потока : 168 Мбайт (4%)
Заголовок : AVO ( В.Горчаков )
Язык : Russian
ServiceKind/String : Complete Main
Default : Да
Forced : Нет

Меню
00:00:00.000 : en:00:00:00.000
00:08:33.555 : en:00:08:33.555
00:16:56.182 : en:00:16:56.182
00:22:52.079 : en:00:22:52.079
00:29:13.669 : en:00:29:13.669
00:40:16.539 : en:00:40:16.539
00:47:18.294 : en:00:47:18.294
00:55:24.029 : en:00:55:24.029
01:12:44.819 : en:01:12:44.819
01:19:36.897 : en:01:19:36.897
01:26:58.922 : en:01:26:58.922
01:34:20.905 : en:01:34:20.905
01:41:07.019 : en:01:41:07.019
01:46:58.996 : en:01:46:58.996
01:54:33.992 : en:01:54:33.992
02:00:27.470 : en:02:00:27.470

Просьба к переливающим на другие сайты, в оформлении указывайте пожалуйста авторство группы R.G. HD-Films piratbit.org



Скачать Бездна через торрент http://img12.lostpic.net/2018/01/06/8b973b33890f0cd2c378ce7e4e880334.jpg Скачать фильм Бездна через торрент бесплантно в хорошем качестве Описание: Супруги Гейл и Дэвид проводят отпуск на экзотическом бермудском острове. Во время подводной охоты им достается роскошная и ... 10 10 2
Торрент: Зарегистрирован [2020-03-25 15:48] · скачан: 61 раз
Статус: √ проверено
Размер: 3.88 GB
Как cкачать? Как скачать Бездна через торрент | qTorrent

28-11-2019 20:33  

Отключить всю рекламу на сайте

25-03-2020 17:09 Бездна Скачать торрент  

Спасибо большое за фильм детства!!! Как же он мне тогда понравился!!!
У нас его в Доме культуры в начале 80-х показывали. Впечатление как и от Вспышки/Flashpoint - бомба!!! Сердечно благодарен за сей релиз.piratbit.org



    Дорогой пользователь! Огромная просьба, поблагодарите релизера, оцените раздачу и оставьте свои комментарий, если Вы скачали Бездна через торрент бесплатно! Внесите свою лепту в развитие PiratBit!
    Комментировать посты могут только пользователи прошедшие не сложную регистрацию
    Показать сообщения:    

    Бездна через торрент
    Скачать бесплатно Бездна
    Бездна скачать торрент
    Бездна смотреть онлайн
    Cкачать фильм Бездна бесплатно
    Бездна скачать торрент в хорошем качестве
    Бездна смотреть онлайн бесплатно в хорошем качестве


    Вы не можете начинать темы
    Вы не можете отвечать на сообщения
    Вы не можете редактировать свои сообщения
    Вы не можете удалять свои сообщения
    Вы не можете голосовать в опросах
    Вы не можете прикреплять файлы к сообщениям
    Вы можете скачивать файлы