Ссылка на приватное зеркало всего за 1$. Внимание количество ограничено!!!

iTunes

iTunes

iTunes

1

iTunes

iTunes

iTunes

iTunes

iTunes

30
pack

Новость дня

ВАЖНО

!!Акция!!

Alien_RageХит недели

RePack

Resident Evil 21

ИГРА 18+

pack

RePack

jed

!!Акция!!

Alien_Rage

RePack

fifa19

RePack

Assassins Creed: Odyssey

RePack

NEED FOR SPEED™ PAYBACK

4 сезон

9 сезон

Бесстыжие 9 сезон

Все сериалы

все сериалы на PB.wtf

RePack

FAR CRY 5
  

Discovery. Ржавая империя (1-4 сезоны: 1-40 серии из 40) / Junkyard Empire (Discovery Channel) [2014-2018 г., Документальный, HDTVRip, Профессиональный (одноголосый)] piratbit.org

Discovery. Ржавая империя через торрент piratbit.org

Размер: 22.87 GB | Добавлен: 9 д. назад | Торрент скачан:2 раза
Скачать  

25-03-2020 19:58 Discovery. Ржавая империя Скачать торрент  

Discovery. Ржавая империя (1-4 сезоны) / Junkyard Empire
Год выпуска: 2014-2018
Страна: США
Жанр: Документальный
Продолжительность: 40 x ~ 00:44:00
Перевод: Профессиональный (одноголосый)
Субтитры: НЕТ

Режиссер: Discovery Channel

Описание: Энди Коэн — автолюбитель, любитель острых ощущений и неутомимый предприниматель, построивший свою собственную империю утиля. А его отец Бобби — человек старой закалки. Он уже десятки лет в этом бизнесе, но совершенно не любит рисковать. От того, кто победит в противостоянии отца и сына, зависит будущее компании. В надежде преуспеть в своем деле Энди, Боб и их команда пытаются отыскать настоящие сокровища, заключить наиболее выгодные сделки и разглядеть потенциал в любом хламе, который многие выбрасывают на помойку. Наши герои докажут, что продать можно все что угодно!

Качество: HDTVRip
Формат: AVI
Видео кодек: XviD
Аудио кодек: AC3
Видео: MPEG-4 XviD, (720x400),1540 Кбит/с, 30.000 кадра/сек
Аудио#1: AC3, 2 ch,192 kbps (Rus) 48.0 KHz Профессиональный одноголосый
скриншот   скриншот   скриншот  

Имя файла: 04 Ржавая империя.avi
Формат файла: .avi (AVI)
Размер файла: 548,55 MB (575 201 280 bytes)
Длительность: 44mn 0s
Навигация по главам: Нет
Битрейт (все потоки): 1 743 Kbps
Обложка: Отсутствует
:
Название: Ржавая империя
:
Тип потока: Видео
Длительность: 00:44:00
Кодек: MPEG-4 Visual
Кодек/профиль: Advanced Simple@L5
Кодек/ID: XVID
Размеры изображения: 720 x 400 (16:9)
Частота кадров: 30.000 fps
Размер потока: 484 MiB (88%)
Битрейт: 1 539 Kbps
Метод сжатия: Lossy
Библиотека кодирования: XviD 1.2.1 (UTC 2008-12-04)
Цветовое пространство: YUV
Тип развёртки: Progressive
Колориметрия: 4:2:0
Глубина: 8 bits
:
Тип потока: Звук #1
Длительность: 00:43:59.998
Кодек: AC-3
Кодек/описание: Audio Coding 3
Кодек/ID: 2000
Частота дискретизации: 48.0 KHz
Каналов: 2 channels
Битрейт: 192 Kbps
Битрейт/тип: Constant
Размер потока: 60.4 MiB (11%)
Глубина: 16 bits
Метод сжатия: Lossy

piratbit.org



Скачать Discovery. Ржавая империя через торрент http://pic1.kartinco.top/images/12/e4iwf.jpg Скачать фильм Discovery. Ржавая империя через торрент бесплантно в хорошем качестве Описание: Энди Коэн — автолюбитель, любитель острых ощущений и неутомимый предприниматель, построивший свою собственную империю утиля. А ... 10 10 3
Торрент: Зарегистрирован [2020-03-25 19:58] · скачан: 2 раз
Статус: √ проверено
Размер: 22.87 GB
Как cкачать? Как скачать Discovery. Ржавая империя через торрент | qTorrent

28-11-2019 20:33  

Отключить всю рекламу на сайте

    Дорогой пользователь! Огромная просьба, поблагодарите релизера, оцените раздачу и оставьте свои комментарий, если Вы скачали Discovery. Ржавая империя через торрент бесплатно! Внесите свою лепту в развитие PiratBit!
    Комментировать посты могут только пользователи прошедшие не сложную регистрацию
    Показать сообщения:    

    Discovery. Ржавая империя через торрент
    Скачать бесплатно Discovery. Ржавая империя
    Discovery. Ржавая империя скачать торрент
    Discovery. Ржавая империя смотреть онлайн
    Cкачать фильм Discovery. Ржавая империя бесплатно
    Discovery. Ржавая империя скачать торрент в хорошем качестве
    Discovery. Ржавая империя смотреть онлайн бесплатно в хорошем качестве


    Вы не можете начинать темы
    Вы не можете отвечать на сообщения
    Вы не можете редактировать свои сообщения
    Вы не можете удалять свои сообщения
    Вы не можете голосовать в опросах
    Вы не можете прикреплять файлы к сообщениям
    Вы можете скачивать файлы