Ссылка на приватное зеркало всего за 1$. Внимание количество ограничено!!!

iTunes

iTunes

iTunes

1

iTunes

iTunes

iTunes

iTunes

iTunes

30
pack

Новость дня

ВАЖНО

!!Акция!!

Alien_RageХит недели

RePack

Resident Evil 21

ИГРА 18+

pack

RePack

jed

!!Акция!!

Alien_Rage

RePack

fifa19

RePack

Assassins Creed: Odyssey

RePack

NEED FOR SPEED™ PAYBACK

4 сезон

9 сезон

Бесстыжие 9 сезон

Все сериалы

все сериалы на PB.wtf

RePack

FAR CRY 5
  

Serious Black - Suite 226 - 2020/ FLAC/ image +.cue/ lossless/ Power Metal piratbit.org

Serious Black - Suite 226 - 2020 через торрент piratbit.org

Раздают: 1 [ 0 KB/s ]
Размер: 361 MB | Добавлен: 13 д. назад | Торрент скачан:11 раз
Скачать  

26-03-2020 09:38 Serious Black - Suite 226 - 2020 Скачать торрент  


Serious Black - Suite 226


Год издания: 2020
Страна: International (Germany / United States / Austria / Czech Republic / Greece)
Жанр: Power Metal
Продолжительность: 00:46:45
Лейбл издания: Fono
Страна-выпуска диска: Russia
Номер по каталогу: FO1536CD
Формат: FLAC
Битрейт аудио: Lossless
Тип рипа: image +.cue
Наличие сканов в содержимом раздачи: да


01. Let Me Go (3:20)
02. When The Stars Are Right (3:53)
03. Solitude Etude (4:20)
04. Fate Of All Humanity (3:52)
05. Castiel (5:30)
06. Heaven Shall Burn (3:30)
07. Way Back Home (4:11)
08. We Still Stand Tall (4:31)
09. Come Home (5:00)
10. Suite 226 (8:37)

Код:

Exact Audio Copy V1.1 from 23. June 2015

EAC extraction logfile from 23. February 2020, 14:45

Serious Black / Suite 226 (FO1536CD)

Used drive  : PIONEER BD-RW   BDR-209D   Adapter: 0  ID: 5

Read mode               : Secure
Utilize accurate stream : Yes
Defeat audio cache      : Yes
Make use of C2 pointers : No

Read offset correction                      : 667
Overread into Lead-In and Lead-Out          : No
Fill up missing offset samples with silence : Yes
Delete leading and trailing silent blocks   : No
Null samples used in CRC calculations       : Yes
Used interface                              : Installed external ASPI interface

Used output format              : User Defined Encoder
Selected bitrate                : 768 kBit/s
Quality                         : High
Add ID3 tag                     : No
Command line compressor         : C:\Program Files (x86)\Exact Audio Copy\FLAC\FLAC.EXE
Additional command line options : -6 -V -T "ARTIST=%artist%" -T "TITLE=%title%" -T "ALBUM=%albumtitle%" -T "DATE=%year%" -T "TRACKNUMBER=%tracknr%" -T "GENRE=%genre%" -T "COMMENT=%comment%" -T "BAND=%albuminterpret%" -T "ALBUMARTIST=%albuminterpret%" -T "COMPOSER=%composer%" %haslyrics%--tag-from-file=LYRICS="%lyricsfile%"%haslyrics% -T "DISCNUMBER=%cdnumber%" -T "TOTALDISCS=%totalcds%" -T "TOTALTRACKS=%numtracks%" %hascover%--picture="%coverfile%"%hascover% %source% -o %dest%

TOC of the extracted CD

     Track |   Start  |  Length  | Start sector | End sector
    ---------------------------------------------------------
        1  |  0:00.00 |  3:20.24 |         0    |    15023
        2  |  3:20.24 |  3:53.33 |     15024    |    32531
        3  |  7:13.57 |  4:19.64 |     32532    |    52020
        4  | 11:33.46 |  3:51.70 |     52021    |    69415
        5  | 15:25.41 |  5:30.13 |     69416    |    94178
        6  | 20:55.54 |  3:30.00 |     94179    |   109928
        7  | 24:25.54 |  4:11.30 |    109929    |   128783
        8  | 28:37.09 |  4:30.40 |    128784    |   149073
        9  | 33:07.49 |  5:00.15 |    149074    |   171588
       10  | 38:07.64 |  8:37.05 |    171589    |   210368

Range status and errors

Selected range

     Filename E:\MUSIC\Serious Black - Suite 226 (FO1536CD).wav

     Peak level 99.4 %
     Extraction speed 7.6 X
     Range quality 100.0 %
     Test CRC DCD9AD91
     Copy CRC DCD9AD91
     Copy OK

No errors occurred

AccurateRip summary

Track  1  not present in database
Track  2  not present in database
Track  3  not present in database
Track  4  not present in database
Track  5  not present in database
Track  6  not present in database
Track  7  not present in database
Track  8  not present in database
Track  9  not present in database
Track 10  not present in database

None of the tracks are present in the AccurateRip database

End of status report

Код:

REM GENRE "Power Metal"
REM DATE 2020
REM DISCID 9B0AF40A
REM COMMENT "ExactAudioCopy v1.1"
PERFORMER "Serious Black"
TITLE "Suite 226 (FO1536CD)"
FILE "Serious Black - Suite 226 (FO1536CD).flac" WAVE
  TRACK 01 AUDIO
    TITLE "Let Me Go"
    PERFORMER "Serious Black"
    INDEX 01 00:00:00
  TRACK 02 AUDIO
    TITLE "When The Stars Are Right"
    PERFORMER "Serious Black"
    INDEX 01 03:20:24
  TRACK 03 AUDIO
    TITLE "Solitude Etude"
    PERFORMER "Serious Black"
    INDEX 01 07:13:57
  TRACK 04 AUDIO
    TITLE "Fate Of All Humanity"
    PERFORMER "Serious Black"
    INDEX 01 11:33:46
  TRACK 05 AUDIO
    TITLE "Castiel"
    PERFORMER "Serious Black"
    INDEX 01 15:25:41
  TRACK 06 AUDIO
    TITLE "Heaven Shall Burn"
    PERFORMER "Serious Black"
    INDEX 01 20:55:54
  TRACK 07 AUDIO
    TITLE "Way Back Home"
    PERFORMER "Serious Black"
    INDEX 01 24:25:54
  TRACK 08 AUDIO
    TITLE "We Still Stand Tall"
    PERFORMER "Serious Black"
    INDEX 01 28:37:09
  TRACK 09 AUDIO
    TITLE "Come Home"
    PERFORMER "Serious Black"
    INDEX 01 33:07:49
  TRACK 10 AUDIO
    TITLE "Suite 226"
    PERFORMER "Serious Black"
    INDEX 01 38:07:64






piratbit.org



Скачать Serious Black - Suite 226 - 2020 через торрент https://i111.fastpic.ru/big/2020/0326/44/134fa8cd905bd28ea44ff5f50c4faf44.png Скачать фильм Serious Black - Suite 226 - 2020через торрент бесплантно в хорошем качестве Трэклист Let Me Go (3:20) When The Stars Are Right (3:53) Solitude Etude (4:20) Fate Of All Humanity (3:52) Castiel ... 10 10 1
Торрент: Зарегистрирован [2020-03-26 09:38] · скачан: 11 раз
Статус: √ проверено
Размер: 361 MB
Как cкачать? Как скачать Serious Black - Suite 226 - 2020 через торрент | qTorrent

28-11-2019 20:33  

Отключить всю рекламу на сайте

    Дорогой пользователь! Огромная просьба, поблагодарите релизера, оцените раздачу и оставьте свои комментарий, если Вы скачали Serious Black - Suite 226 - 2020 через торрент бесплатно! Внесите свою лепту в развитие PiratBit!
    Комментировать посты могут только пользователи прошедшие не сложную регистрацию
    Показать сообщения:    

    Serious Black - Suite 226 - 2020 через торрент
    Скачать бесплатно Serious Black - Suite 226 - 2020
    Serious Black - Suite 226 - 2020 скачать торрент
    Serious Black - Suite 226 - 2020 смотреть онлайн
    Cкачать фильм Serious Black - Suite 226 - 2020 бесплатно
    Serious Black - Suite 226 - 2020 скачать торрент в хорошем качестве
    Serious Black - Suite 226 - 2020 смотреть онлайн бесплатно в хорошем качестве


    Вы не можете начинать темы
    Вы не можете отвечать на сообщения
    Вы не можете редактировать свои сообщения
    Вы не можете удалять свои сообщения
    Вы не можете голосовать в опросах
    Вы не можете прикреплять файлы к сообщениям
    Вы можете скачивать файлы