Ссылка на приватное зеркало всего за 1$. Внимание количество ограничено!!!

iTunes

iTunes

iTunes

1

iTunes

iTunes

iTunes

iTunes

iTunes

30
pack

Новость дня

ВАЖНО

!!Акция!!

Alien_RageХит недели

RePack

Resident Evil 21

ИГРА 18+

pack

RePack

jed

!!Акция!!

Alien_Rage

RePack

fifa19

RePack

Assassins Creed: Odyssey

RePack

NEED FOR SPEED™ PAYBACK

4 сезон

9 сезон

Бесстыжие 9 сезон

Все сериалы

все сериалы на PB.wtf

RePack

FAR CRY 5
  

H.e.a.t (Heat) - II - 2020/ FLAC/ image +.cue/ lossless/ Melodic Hard Rock piratbit.org

H.e.a.t через торрент piratbit.org

Раздают: 2 [ 0 KB/s ] Качают: 1 [ 0 KB/s ]
Размер: 364 MB | Добавлен: 9 д. назад | Торрент скачан:18 раз
Скачать  

26-03-2020 12:35 H.e.a.t Скачать торрент  


H.e.a.t (Heat) - II


Год издания: 2020
Страна: Sweden
Жанр: Melodic Hard Rock
Продолжительность: 00:45:20
Лейбл издания: earMUSIC
Страна-выпуска диска: Germany
Номер по каталогу: 0214598EMU
Формат: FLAC
Битрейт аудио: Lossless
Тип рипа: image +.cue
Наличие сканов в содержимом раздачи: да


01. Rock Your Body (4:04)
02. Dangerous Ground (4:07)
03. Come Clean (3:44)
04. Victory (4:28)
05. We are Gods (4:11)
06. Adrenaline (4:26)
07. One by One (3:47)
08. Nothing to say (4:08)
09. Heaven Must have won an Angel (4:42)
10. Under the Gun (3:25)
11. Rise (4:18)

Код:

Exact Audio Copy V1.1 from 23. June 2015

EAC extraction logfile from 7. March 2020, 20:42

HEAT / II (0214598EMU)

Used drive  : PIONEER BD-RW   BDR-209D   Adapter: 0  ID: 5

Read mode               : Secure
Utilize accurate stream : Yes
Defeat audio cache      : Yes
Make use of C2 pointers : No

Read offset correction                      : 667
Overread into Lead-In and Lead-Out          : No
Fill up missing offset samples with silence : Yes
Delete leading and trailing silent blocks   : No
Null samples used in CRC calculations       : Yes
Used interface                              : Installed external ASPI interface

Used output format              : User Defined Encoder
Selected bitrate                : 768 kBit/s
Quality                         : High
Add ID3 tag                     : No
Command line compressor         : C:\Program Files (x86)\Exact Audio Copy\FLAC\FLAC.EXE
Additional command line options : -6 -V -T "ARTIST=%artist%" -T "TITLE=%title%" -T "ALBUM=%albumtitle%" -T "DATE=%year%" -T "TRACKNUMBER=%tracknr%" -T "GENRE=%genre%" -T "COMMENT=%comment%" -T "BAND=%albuminterpret%" -T "ALBUMARTIST=%albuminterpret%" -T "COMPOSER=%composer%" %haslyrics%--tag-from-file=LYRICS="%lyricsfile%"%haslyrics% -T "DISCNUMBER=%cdnumber%" -T "TOTALDISCS=%totalcds%" -T "TOTALTRACKS=%numtracks%" %hascover%--picture="%coverfile%"%hascover% %source% -o %dest%

TOC of the extracted CD

     Track |   Start  |  Length  | Start sector | End sector
    ---------------------------------------------------------
        1  |  0:00.00 |  4:03.56 |         0    |    18280
        2  |  4:03.56 |  4:06.62 |     18281    |    36792
        3  |  8:10.43 |  3:43.50 |     36793    |    53567
        4  | 11:54.18 |  4:28.11 |     53568    |    73678
        5  | 16:22.29 |  4:11.24 |     73679    |    92527
        6  | 20:33.53 |  4:26.08 |     92528    |   112485
        7  | 24:59.61 |  3:47.24 |    112486    |   129534
        8  | 28:47.10 |  4:07.68 |    129535    |   148127
        9  | 32:55.03 |  4:41.40 |    148128    |   169242
       10  | 37:36.43 |  3:25.24 |    169243    |   184641
       11  | 41:01.67 |  4:17.48 |    184642    |   203964

Range status and errors

Selected range

     Filename E:\MUSIC\HEAT - II (0214598EMU).wav

     Peak level 97.7 %
     Extraction speed 7.6 X
     Range quality 100.0 %
     Test CRC 568B84C7
     Copy CRC 568B84C7
     Copy OK

No errors occurred

AccurateRip summary

Track  1  not present in database
Track  2  not present in database
Track  3  not present in database
Track  4  not present in database
Track  5  not present in database
Track  6  not present in database
Track  7  not present in database
Track  8  not present in database
Track  9  not present in database
Track 10  not present in database
Track 11  not present in database

None of the tracks are present in the AccurateRip database

End of status report

Код:

REM GENRE "Melodic Hard Rock"
REM DATE 2020-01-31
REM DISCID 9C0A9F0B
REM COMMENT "ExactAudioCopy v1.1"
PERFORMER "H.e.a.t"
TITLE "II (0214598EMU)"
FILE "H.e.a.t - II (0214598EMU).flac" WAVE
  TRACK 01 AUDIO
    TITLE "Rock Your Body"
    PERFORMER "H.e.a.t"
    INDEX 01 00:00:00
  TRACK 02 AUDIO
    TITLE "Dangerous Ground"
    PERFORMER "H.e.a.t"
    INDEX 01 04:03:56
  TRACK 03 AUDIO
    TITLE "Come Clean"
    PERFORMER "H.e.a.t"
    INDEX 01 08:10:43
  TRACK 04 AUDIO
    TITLE "Victory"
    PERFORMER "H.e.a.t"
    INDEX 01 11:54:18
  TRACK 05 AUDIO
    TITLE "We are Gods"
    PERFORMER "H.e.a.t"
    INDEX 01 16:22:29
  TRACK 06 AUDIO
    TITLE "Adrenaline"
    PERFORMER "H.e.a.t"
    INDEX 01 20:33:53
  TRACK 07 AUDIO
    TITLE "One by One"
    PERFORMER "H.e.a.t"
    INDEX 01 24:59:61
  TRACK 08 AUDIO
    TITLE "Nothing to say"
    PERFORMER "H.e.a.t"
    INDEX 01 28:47:10
  TRACK 09 AUDIO
    TITLE "Heaven Must have won an Angel"
    PERFORMER "H.e.a.t"
    INDEX 01 32:55:03
  TRACK 10 AUDIO
    TITLE "Under the Gun"
    PERFORMER "H.e.a.t"
    INDEX 01 37:36:43
  TRACK 11 AUDIO
    TITLE "Rise"
    PERFORMER "H.e.a.t"
    INDEX 01 41:01:67






piratbit.org



Скачать H.e.a.t через торрент https://i111.fastpic.ru/big/2020/0326/37/da1a58dfe4547d82f044b2e7f7c61d37.png Скачать фильм H.e.a.t через торрент бесплантно в хорошем качестве Трэклист Rock Your Body (4:04) Dangerous Ground (4:07) Come Clean (3:44) Victory (4:28) We are Gods (4:11) ... 5 10 1
Торрент: Зарегистрирован [2020-03-26 12:35] · скачан: 18 раз
Статус: √ проверено
Размер: 364 MB
Как cкачать? Как скачать H.e.a.t через торрент | qTorrent

28-11-2019 20:33  

Отключить всю рекламу на сайте

    Дорогой пользователь! Огромная просьба, поблагодарите релизера, оцените раздачу и оставьте свои комментарий, если Вы скачали H.e.a.t через торрент бесплатно! Внесите свою лепту в развитие PiratBit!
    Комментировать посты могут только пользователи прошедшие не сложную регистрацию
    Показать сообщения:    

    H.e.a.t через торрент
    Скачать бесплатно H.e.a.t
    H.e.a.t скачать торрент
    H.e.a.t смотреть онлайн
    Cкачать фильм H.e.a.t бесплатно
    H.e.a.t скачать торрент в хорошем качестве
    H.e.a.t смотреть онлайн бесплатно в хорошем качестве


    Вы не можете начинать темы
    Вы не можете отвечать на сообщения
    Вы не можете редактировать свои сообщения
    Вы не можете удалять свои сообщения
    Вы не можете голосовать в опросах
    Вы не можете прикреплять файлы к сообщениям
    Вы можете скачивать файлы