Ссылка на приватное зеркало нашего сайта всего за 1$. Внимание количество ограничено!!!

2 сезон

iTunes

1 сезон

1

iTunes

iTunes

iTunes

1 сезон

RePack

30

ИГРА 18+

pack

ВАЖНО

!!Акция!!

Alien_RageХит недели

RePack

MK11
pack

Забери бонус

RePack

jed

!!Акция!!

Alien_Rage

RePack

fifa19

RePack

Assassins Creed: Odyssey

RePack

NEED FOR SPEED™ PAYBACK

4 сезон

9 сезон

Бесстыжие 9 сезон

Все сериалы

все сериалы на PB.wtf

RePack

FAR CRY 5
  

Полный концерт Backstreet Boys oт 7 марта 2020 в Аргентине, все хиты / Backstreet Boys Tour DNA 2020 (live in Argentine) 720 HD [2020 г., Поп, Ретро, Концерт, HDTVRip 720p] piratbit.org

Полный концерт Backstreet Boys oт 7 марта 2020 в Аргентине, все хиты через торрент piratbit.org

Размер: 840 MB | Добавлен: 6 мес. назад | Торрент скачан:18 раз
Скачать  

26-03-2020 15:24 Полный концерт Backstreet Boys oт 7 марта 2020 в Аргентине, все хиты Скачать торрент  

Полный концерт Backstreet Boys oт 7 марта 2020 в Аргентине все хиты / Backstreet Boys Tour DNA 2020 (live in Argentine) 720 HD
Год выпуска: 2020
Страна: Аргентина
Жанр: Поп, Ретро, Концерт
Продолжительность: 02:01:01
Тип релиза: Лицензия

Описание: Backstreet Boys DNA tour at 7 march 2020 in Argentina. The construction of a concert program: 2 old songs+1 new song. Included all TOP hits of Backstreet Boys from all the albums + new album DNA. 


02:21 - Everyone
03:21 - I wanna be With You
06:32 - The Call
09:36 - Don't Want You Back
13:39 - Nobody Else
14:46 - New Love
17:30 - Get Down
20:51 - Chateau
23:03 - Show me the meaning of being lonely
26:39 - Incomplete
30:34 - Undone
33:49 - More Than that
39:07 - The Way it Was
40:48 - Chances
43:32 - Shape of my heart
46:02 - Drowning
55:53 - Passionate
57:46 - Quit Playing Games With My Heart
1:00:42 - As Long as you love me
1:03:43 - No place
1:13:16 - Breathe
1:16:20 - Don't Wanna Lose You Now
1:19:51 - Nunca te hare llorar (I'll never break you heart)
1:23:10 - All I have to give
1:27:56 - Megamix/Everybody
1:32:46 - We've got in go on
1:34:53 - It's gotta be you
1:37:16 - That's the way i like it
1:39:01 - Get Another Boyfriend
1:40:54 - The One
1:44:53 - I want it that way
1:51:35 - Don't go breaking my heart
1:55:49 - Larger Than Life

Качество: HDTVRip 720p
Формат: MPEG
Видео кодек: AVC
Аудио кодек: AAC
Видео: 834 Кбит/сек, 1280*720 (16:9), в 30,000 кадров/сек, AVC
Аудио#1: 128 Кбит/сек, 44,1 КГц, 2 канала, AAC LC
Релиз от: FlowMusicXP
[img] [/img]

Формат : MPEG-4
Профиль формата : Base Media
Идентификатор кодека : isom (isom/iso2/avc1/mp41)
Размер файла : 840 Мбайт
Продолжительность : 2 ч. 1 м.
Общий поток : 970 Кбит/сек
Программа кодирования : Lavf58.21.100

Видео
Идентификатор : 1
Формат : AVC
Формат/Информация : Advanced Video Codec
Профиль формата : Main@L3.1
Настройки формата : CABAC / 3 Ref Frames
Параметр CABAC формата : Да
Параметр ReFrames формата : 3 кадра
Идентификатор кодека : avc1
Идентификатор кодека/Информация : Advanced Video Coding
Продолжительность : 2 ч. 1 м.
Битрейт : 834 Кбит/сек
Ширина : 1280 пикселей
Высота : 720 пикселей
Соотношение сторон : 16:9
Режим частоты кадров : Постоянный
Частота кадров : 30,000 кадров/сек
Цветовое пространство : YUV
Субдискретизация насыщенности : 4:2:0
Битовая глубина : 8 бит
Тип развёртки : Прогрессивная
Бит/(Пиксели*Кадры) : 0.030
Размер потока : 721 Мбайт (86%)
Заголовок : ISO Media file produced by Google Inc.
Библиотека кодирования : x264 core 155 r2901 7d0ff22
Цветовой диапазон : Limited
Основные цвета : BT.709
Характеристики трансфера : BT.709
Коэффициенты матрицы : BT.709
Codec configuration box : avcC

Аудио
Идентификатор : 2
Формат : AAC LC
Формат/Информация : Advanced Audio Codec Low Complexity
Идентификатор кодека : mp4a-40-2
Продолжительность : 2 ч. 1 м.
Вид битрейта : Постоянный
Битрейт : 128 Кбит/сек
Каналы : 2 канала
Channel layout : L R
Частота : 44,1 КГц
Частота кадров : 43,066 кадра/сек (1024 SPF)
Метод сжатия : С потерями
Размер потока : 111 Мбайт (13%)
Заголовок : ISO Media file produced by Google Inc.
Default : Да
Alternate group : 1

piratbit.org



Скачать Полный концерт Backstreet Boys oт 7 марта 2020 в Аргентине, все хиты через торрент https://i111.fastpic.ru/big/2020/0322/0a/c27b71778f6c5205bdbdd4f27fbac80a.jpg Скачать фильм Полный концерт Backstreet Boys oт 7 марта 2020 в Аргентине, все хиты через торрент бесплантно в хорошем качестве Описание: Backstreet Boys DNA tour at 7 march 2020 in Argentina. The construction of a concert program: 2 old songs+1 new song. Included ... 10 10 3
Торрент: Зарегистрирован [2020-03-26 15:24] · скачан: 18 раз
Статус: ? недооформлено
Размер: 840 MB
Как cкачать? Как скачать Полный концерт Backstreet Boys oт 7 марта 2020 в Аргентине, все хиты через торрент | qTorrent

28-11-2019 20:33  

Отключить всю рекламу на сайте

29-03-2020 12:02 Полный концерт Backstreet Boys oт 7 марта 2020 в Аргентине, все хиты Скачать торрент  

LeraM888, Пронумеруйте треклист и уберите под спойлер. Скрины сделайте без перехода на посторонний сайт с разрешением заявленного видео.piratbit.org



26-04-2020 11:19 Полный концерт Backstreet Boys oт 7 марта 2020 в Аргентине, все хиты Скачать торрент  

Топик был перенесен из форума Концерты в форум Для пробных / тестовых / неоформленых раздач


sdolotovpiratbit.org



    Дорогой пользователь! Огромная просьба, поблагодарите релизера, оцените раздачу и оставьте свои комментарий, если Вы скачали Полный концерт Backstreet Boys oт 7 марта 2020 в Аргентине, все хиты через торрент бесплатно! Внесите свою лепту в развитие PiratBit!
    Комментировать посты могут только пользователи прошедшие не сложную регистрацию
    Показать сообщения:    

    Полный концерт Backstreet Boys oт 7 марта 2020 в Аргентине, все хиты через торрент
    Скачать бесплатно Полный концерт Backstreet Boys oт 7 марта 2020 в Аргентине, все хиты
    Полный концерт Backstreet Boys oт 7 марта 2020 в Аргентине, все хиты скачать торрент
    Полный концерт Backstreet Boys oт 7 марта 2020 в Аргентине, все хиты смотреть онлайн
    Cкачать фильм Полный концерт Backstreet Boys oт 7 марта 2020 в Аргентине, все хиты бесплатно
    Полный концерт Backstreet Boys oт 7 марта 2020 в Аргентине, все хиты скачать торрент в хорошем качестве
    Полный концерт Backstreet Boys oт 7 марта 2020 в Аргентине, все хиты смотреть онлайн бесплатно в хорошем качестве


    Вы не можете начинать темы
    Вы не можете отвечать на сообщения
    Вы не можете редактировать свои сообщения
    Вы не можете удалять свои сообщения
    Вы не можете голосовать в опросах
    Вы не можете прикреплять файлы к сообщениям
    Вы можете скачивать файлы