Достать ножи: Стеклянная луковица

MVO

Добыча

Дубляж

Уэнсдэй

1 сезон

Тор

Дубляж

13 клиническая

1 сезон

Жестокая ночь

MVO

Одни из нас

1 сезон

Deluxe

pack

Рекомендуем

30

Пиратка

ВАЖНО

ВАЖНО

Ghostwire

Пиратка

jed

RePack

nioh2

RePack

RDR2

RePack

NEED FOR SPEED™ PAYBACK

RePack

скачать торрент

Кинопоиск HD

Острые козырьки 6 сезон

6 сезон

FAR CRY 6

RePack

скачать торрент

Лицензия

скачать торрент

MVO

1

1 сезон

скачать торрент

1 сезон

скачать торрент

Лицензия

  

Плохие парни навсегда / Bad Boys for Life (Адиль Эль Арби, Билал Фалла) [2020, боевик, триллер, комедия, криминал, UHD BDRip 2160p] Дубляж (rus, ukr) [Лицензия] +MVO [HDRezka]

Плохие парни навсегда через торрент piratbit.org

Размер: 14.31 GB | Добавлен: 2 года 8 мес. назад | Торрент скачан:69 раз
Смотреть онлайн | Скачать | Поддержите нас   

27-03-2020 16:10 Плохие парни навсегда Скачать торрент  

Плохие парни навсегда | Bad Boys for Life
Год выпуска: 2020
Страна: США, Мексика
Студия: Columbia Pictures, 2.0 Entertainment, Columbia Pictures Mexico
Жанр: боевик, триллер, комедия, криминал
Продолжительность: 02:03:58
Перевод:
#1: Дублированный | Лицензия
#2: Профессиональный многоголосый | HDRezka
Субтитры: Русские (Forced, Full), украинские (Forced, Full), английские

Режиссер: Адиль Эль Арби, Билал Фалла

rating

В ролях: Уилл Смит, Мартин Лоуренс, Александр Людвиг, Ванесса Энн Хадженс, Джо Пантольяно, Паола Нуньес, Чарльз Мелтон, Кейт дель Кастильо, Хэппи Андерсон

Описание: Бёрнетт рассорился с напарником, оставил службу в полиции Майами и занялся частной сыскной деятельностью. Лоури тем временем переживает кризис среднего возраста и подумывает завязать с холостяцким образом жизни. Параллельно ему приходится разбираться с новым наглым партнёром. «Плохим парням» приходится вновь объединиться, когда за ними начинает охоту албанский наёмник, желающий отомстить за смерть своего брата. Чтобы выжить, бывшие напарники должны забыть о старых обидах.

Качество: UHD BDRip 2160p
Формат: MKV

Видео: 3840x1606 at 23.976 fps, MPEG-H HEVC HDR Video, 14800 kbps avg
Аудио #01: 48 kHz, AC3, 5.1, 448 Kbps | Дублированный | RUS |
Аудио #02: 48 kHz, AC3, 5.1, 448 Kbps | HDRezka | RUS |
Аудио #03: 48 kHz, AC3, 2.0, 192 Kbps | iTunes | UKR |
Аудио #04: 48 kHz, AC3, 5.1, 640 Kbps | Оригинал | ENG |
скриншот  скриншот  скриншот  скриншот  скриншот  

Общее
Уникальный идентификатор : 185400012849489431449339439452954420904 (0x8B7ABE5F6E53DEAC982004ADA6DDE6A8)
Полное имя : D:\Передел\Bad.Boys.for.Life.2020.UHD.BDRip.x265.2160p.HDR.10.bit.Master5.mkv
Формат : Matroska
Версия формата : Version 4
Размер файла : 14,3 Гбайт
Продолжительность : 2 ч. 3 м.
Общий поток : 16,5 Мбит/сек
Название фильма : Bad.Boys.for.Life.2020.UHD.BDRip.x265.2160p.HDR.10.bit.Master5
Дата кодирования : UTC 2020-05-12 18:34:39
Программа кодирования : mkvmerge v7.9.0 ('Birds') 64bit
Библиотека кодирования : libebml v1.3.1 + libmatroska v1.4.2
Обложка : Yes
Attachments : small_cover.jpg / small_cover_land.jpg / cover.jpg / cover_land.jpg

Видео
Идентификатор : 1
Формат : HEVC
Формат/Информация : High Efficiency Video Coding
Коммерческое название : HDR10
Профиль формата : Main 10@L5.1@High
Идентификатор кодека : V_MPEGH/ISO/HEVC
Продолжительность : 2 ч. 3 м.
Битрейт : 14,8 Мбит/сек
Ширина : 3840 пикселей
Высота : 1606 пикселей
Соотношение сторон : 2,40:1
Режим частоты кадров : Постоянный
Частота кадров : 23,976 (24000/1001) кадра/сек
Цветовое пространство : YUV
Субдискретизация насыщенности : 4:2:0 (Type 2)
Битовая глубина : 10 бит
Бит/(Пиксели*Кадры) : 0.100
Размер потока : 12,8 Гбайт (90%)
Заголовок : Bad.Boys.for.Life.2020.UHD.BDRip.x265.2160p.HDR.10.bit.Master5
Библиотека кодирования : x265 3.0_Au+10-74a8672ea4f7:[Windows][GCC 8.2.1][64 bit] 10bit
Настройки программы : cpuid=1111039 / frame-threads=6 / numa-pools=24,24,24,24 / wpp / no-pmode / no-pme / no-psnr / no-ssim / log-level=2 / input-csp=1 / input-res=3840x1606 / interlace=0 / total-frames=0 / level-idc=51 / high-tier=1 / uhd-bd=0 / ref=3 / no-allow-non-conformance / repeat-headers / annexb / aud / hrd / info / hash=0 / no-temporal-layers / no-open-gop / min-keyint=1 / keyint=24 / gop-lookahead=0 / bframes=4 / b-adapt=2 / b-pyramid / bframe-bias=0 / rc-lookahead=25 / lookahead-slices=4 / scenecut=40 / radl=0 / no-splice / no-intra-refresh / ctu=64 / min-cu-size=8 / no-rect / no-amp / max-tu-size=32 / tu-inter-depth=1 / tu-intra-depth=1 / limit-tu=0 / rdoq-level=0 / dynamic-rd=0.00 / no-ssim-rd / signhide / no-tskip / nr-intra=0 / nr-inter=0 / no-constrained-intra / strong-intra-smoothing / max-merge=2 / limit-refs=3 / no-limit-modes / me=1 / subme=2 / merange=57 / temporal-mvp / weightp / no-weightb / no-analyze-src-pics / deblock=0:0 / no-sao / no-sao-non-deblock / rd=3 / no-early-skip / rskip / no-fast-intra / no-tskip-fast / no-cu-lossless / no-b-intra / no-splitrd-skip / rdpenalty=0 / psy-rd=2.00 / psy-rdoq=0.00 / no-rd-refine / no-lossless / cbqpoffs=0 / crqpoffs=0 / rc=crf / crf=14.0 / qcomp=0.60 / qpstep=4 / stats-write=0 / stats-read=0 / vbv-maxrate=160000 / vbv-bufsize=160000 / vbv-init=0.9 / crf-max=0.0 / crf-min=0.0 / ipratio=1.40 / pbratio=1.30 / aq-mode=1 / aq-strength=1.00 / cutree / zone-count=0 / no-strict-cbr / qg-size=32 / no-rc-grain / qpmax=69 / qpmin=0 / no-const-vbv / sar=1 / overscan=0 / videoformat=5 / range=0 / colorprim=9 / transfer=16 / colormatrix=9 / chromaloc=1 / chromaloc-top=2 / chromaloc-bottom=2 / display-window=0 / master-display=G(13250,34500)B(7500,3000)R(34000,16000)WP(15635,16450)L(40000000,50) / max-cll=4004,695 / min-luma=0 / max-luma=1023 / log2-max-poc-lsb=8 / vui-timing-info / vui-hrd-info / slices=1 / opt-qp-pps / opt-ref-list-length-pps / no-multi-pass-opt-rps / scenecut-bias=0.05 / no-opt-cu-delta-qp / no-aq-motion / hdr / hdr-opt / no-dhdr10-opt / no-idr-recovery-sei / analysis-reuse-level=5 / scale-factor=0 / refine-intra=0 / refine-inter=0 / refine-mv=0 / refine-ctu-distortion=0 / no-limit-sao / ctu-info=0 / no-lowpass-dct / refine-analysis-type=0 / copy-pic=1 / max-ausize-factor=1.0 / no-dynamic-refine / no-single-sei / no-hevc-aq / no-svt / qp-adaptation-range=1.00
Default : Да
Forced : Нет
Цветовой диапазон : Limited
Основные цвета : BT.2020
Характеристики трансфера : PQ
Коэффициенты матрицы : BT.2020 non-constant
MasteringDisplay_ColorPrimaries : Display P3
MasteringDisplay_Luminance : min: 0.0050 cd/m2, max: 4000 cd/m2
MaxCLL : 4004 cd/m2
MaxFALL : 695 cd/m2

Аудио #1
Идентификатор : 2
Формат : AC-3
Формат/Информация : Audio Coding 3
Коммерческое название : Dolby Digital
Идентификатор кодека : A_AC3
Продолжительность : 2 ч. 3 м.
Вид битрейта : Постоянный
Битрейт : 448 Кбит/сек
Каналы : 6 каналов
Channel layout : L R C LFE Ls Rs
Частота : 48,0 КГц
Частота кадров : 31,250 кадров/сек (1536 SPF)
Битовая глубина : 16 бит
Метод сжатия : С потерями
Размер потока : 397 Мбайт (3%)
Заголовок : Дубляж License
Язык : Russian
ServiceKind/String : Complete Main
Default : Да
Forced : Да

Аудио #2
Идентификатор : 3
Формат : AC-3
Формат/Информация : Audio Coding 3
Коммерческое название : Dolby Digital
Идентификатор кодека : A_AC3
Продолжительность : 2 ч. 3 м.
Вид битрейта : Постоянный
Битрейт : 448 Кбит/сек
Каналы : 6 каналов
Channel layout : L R C LFE Ls Rs
Частота : 48,0 КГц
Частота кадров : 31,250 кадров/сек (1536 SPF)
Битовая глубина : 16 бит
Метод сжатия : С потерями
Размер потока : 397 Мбайт (3%)
Заголовок : MVO HDRezka
Язык : Russian
ServiceKind/String : Complete Main
Default : Нет
Forced : Нет

Аудио #3
Идентификатор : 4
Формат : AC-3
Формат/Информация : Audio Coding 3
Коммерческое название : Dolby Digital
Идентификатор кодека : A_AC3
Продолжительность : 2 ч. 3 м.
Вид битрейта : Постоянный
Битрейт : 192 Кбит/сек
Каналы : 2 канала
Channel layout : L R
Частота : 48,0 КГц
Частота кадров : 31,250 кадров/сек (1536 SPF)
Битовая глубина : 16 бит
Метод сжатия : С потерями
Размер потока : 170 Мбайт (1%)
Заголовок : iTunes
Язык : Ukrainian
ServiceKind/String : Complete Main
Default : Нет
Forced : Нет

Аудио #4
Идентификатор : 5
Формат : AC-3
Формат/Информация : Audio Coding 3
Коммерческое название : Dolby Digital
Идентификатор кодека : A_AC3
Продолжительность : 2 ч. 3 м.
Вид битрейта : Постоянный
Битрейт : 640 Кбит/сек
Каналы : 6 каналов
Channel layout : L R C LFE Ls Rs
Частота : 48,0 КГц
Частота кадров : 31,250 кадров/сек (1536 SPF)
Битовая глубина : 16 бит
Метод сжатия : С потерями
Размер потока : 568 Мбайт (4%)
Заголовок : Original
Язык : English
ServiceKind/String : Complete Main
Default : Нет
Forced : Нет

Текст #1
Идентификатор : 6
Формат : UTF-8
Идентификатор кодека : S_TEXT/UTF8
Идентификатор кодека/Информация : UTF-8 Plain Text
Продолжительность : 2 ч. 0 м.
Битрейт : 4 бит/сек
ElementCount : 91
Размер потока : 4,27 Кбайт (0%)
Заголовок : Forced
Язык : Russian
Default : Да
Forced : Да

Текст #2
Идентификатор : 7
Формат : UTF-8
Идентификатор кодека : S_TEXT/UTF8
Идентификатор кодека/Информация : UTF-8 Plain Text
Продолжительность : 2 ч. 2 м.
Битрейт : 91 бит/сек
ElementCount : 1794
Размер потока : 82,6 Кбайт (0%)
Заголовок : Full
Язык : Russian
Default : Нет
Forced : Нет

Текст #3
Идентификатор : 8
Формат : UTF-8
Идентификатор кодека : S_TEXT/UTF8
Идентификатор кодека/Информация : UTF-8 Plain Text
Продолжительность : 1 ч. 58 м.
Битрейт : 4 бит/сек
ElementCount : 79
Размер потока : 3,65 Кбайт (0%)
Заголовок : Forced
Язык : Ukrainian
Default : Нет
Forced : Нет

Текст #4
Идентификатор : 9
Формат : UTF-8
Идентификатор кодека : S_TEXT/UTF8
Идентификатор кодека/Информация : UTF-8 Plain Text
Продолжительность : 2 ч. 2 м.
Битрейт : 102 бит/сек
ElementCount : 1618
Размер потока : 92,0 Кбайт (0%)
Заголовок : Full
Язык : Ukrainian
Default : Нет
Forced : Нет

Текст #5
Идентификатор : 10
Формат : UTF-8
Идентификатор кодека : S_TEXT/UTF8
Идентификатор кодека/Информация : UTF-8 Plain Text
Продолжительность : 2 ч. 1 м.
Битрейт : 67 бит/сек
ElementCount : 2221
Размер потока : 59,6 Кбайт (0%)
Язык : English
Default : Нет
Forced : Нет

Меню
00:00:00.000 : :Chapter 1
00:07:32.869 : :Chapter 2
00:14:56.770 : :Chapter 3
00:23:43.380 : :Chapter 4
00:31:05.738 : :Chapter 5
00:38:43.195 : :Chapter 6
00:45:26.473 : :Chapter 7
00:53:27.454 : :Chapter 8
01:00:22.160 : :Chapter 9
01:07:29.378 : :Chapter 10
01:12:55.287 : :Chapter 11
01:22:11.676 : :Chapter 12
01:29:49.217 : :Chapter 13
01:36:47.927 : :Chapter 14
01:42:08.622 : :Chapter 15
01:53:55.328 : :Chapter 16




Скачать Плохие парни навсегда через торрент https://img15.lostpic.net/2020/04/10/2f5a95f411b43ba8fc94005a7bbd35e9.jpg Скачать, смотреть онлайн Плохие парни навсегда бесплантно в хорошем качестве Описание: Бёрнетт рассорился с напарником, оставил службу в полиции Майами и занялся частной сыскной деятельностью. Лоури тем временем ... 9.6 10 45
Торрент: Зарегистрирован [2020-05-12 20:50] · скачан: 69 раз
Статус: √ проверено
Размер: 14.31 GB
Как cкачать? Как скачать Плохие парни навсегда через торрент | UTorrent

% Раздел Тема Автор DL S | L
Фильмы 2019-2020 [DVDrip, WEB-DLRip, HDrip] (DUB, MVO) [ 2.18 GB ] Плохие парни навсегда / Bad Boys for Life | Лицензия 4К EUR | BDRip bober100 Скачать
1 | 0
Фильмы 2019-2020 [DVDrip, WEB-DLRip, HDrip] (DUB, MVO) [ 1.46 GB ] Плохие парни навсегда / Bad Boys for Life | Лицензия Blu-ray 4K EUR | BDRip-AVC bober100 Скачать
1 | 0
Фильмы 2019-2020 [DVDrip, WEB-DLRip, HDrip] (DUB, MVO) [ 2.91 GB ] Плохие парни навсегда / Bad Boys for Life | Лицензия Blu-ray 4K EUR | BDRip-AVC bober100 Скачать
1 | 1
Ultra HD (UHD: 2K, 4K, 8K) [ 20.08 GB ] Плохие парни навсегда / Bad Boys for Life | Лицензия | 2160p, (SDR bober100 Скачать
1 | 0
Ultra HD (UHD: 2K, 4K, 8K) [ 55.86 GB ] Плохие парни навсегда / Bad Boys for Life | Лицензия | 2160p bober100 Скачать
1 | 0
Фильмы (WEB-DL 720p, 1080p) [ 4.24 GB ] Плохие парни навсегда / Bad Boys for Life | iTunes | 720p bober100 Скачать
3 | 0
Фильмы [HD 720p, 1080p] (Хороший звук DUB, MVO) [ 5.8 GB ] Плохие парни навсегда / Bad Boys for Life | Лицензия | 720p bober100 Скачать
1 | 0



Последний раз редактировалось: bober100 (2020-05-12 20:52), всего редактировалось 3 раз(а)

28-11-2019 20:33  


Отключить вcю реклaмy на сайте, в т.ч. и в плеере онлайн просмотра!

    Дорогой пользователь! Огромная просьба, поблагодарите релизера, оцените раздачу и оставьте свои комментарий, если Вы скачали Плохие парни навсегда через торрент бесплатно!!
    Комментировать посты могут только пользователи прошедшие не сложную регистрацию
    Показать сообщения:    


    Плохие парни навсегда через торрент
    Скачать бесплатно Плохие парни навсегда
    Плохие парни навсегда скачать торрент
    Плохие парни навсегда смотреть онлайн
    Cкачать фильм Плохие парни навсегда бесплатно
    Плохие парни навсегда скачать торрент в хорошем качестве
    Плохие парни навсегда смотреть онлайн бесплатно в хорошем качестве
    Вы не можете начинать темы
    Вы не можете отвечать на сообщения
    Вы не можете редактировать свои сообщения
    Вы не можете удалять свои сообщения
    Вы не можете голосовать в опросах
    Вы не можете прикреплять файлы к сообщениям
    Вы можете скачивать файлы
    Плохие парни навсегда / Bad Boys for Life [2020, боевик, триллер, комедия, криминал, UHD BDRip 2160p] Дубляж [Лицензия] +MVO [HDRezka] смотреть онлайн, скачать торрент picoco.icu