2 сезон

iTunes

WEBRip

1

2 сезон

iTunes

1 сезон

1 сезон

RePack

30

Ultimate

ВАЖНО

ИГРА 18+

pack

RePack

MK11
pack

Легкие деньги

RePack

jed

RePack

fifa19

RePack

RDR2

RePack

NEED FOR SPEED™ PAYBACK

4 сезон

9 сезон

Бесстыжие 9 сезон

Все сериалы

все сериалы на PB.wtf

RePack

FAR CRY 5

Anonymous, добрый вечер, мы не успеваем собрать деньги на оплату серверов за февраль, помогите нам пожалуйста в это трудное время. В качестве благодарности мы отключим Вам всю рекламу на сайте (укажите свой ник в строку Ваше имя)!

×
  
Magnet ссылка

Зов предков / The Call of the Wild (Крис Сандерс) [2019, Драма, приключения, семейный, WEB-DL 1080p] [Ukr DUB] piratbit.org

Зов предков через торрент piratbit.org

Размер: 5.37 GB | Добавлен: 11 мес. назад | Торрент скачан:58 раз
Скачать  

29-03-2020 09:45 Зов предков Скачать торрент  

Зов предков / The Call of the Wild

Год выпуска: 2020
Страна: США
Жанр: Драма, приключения, семейный
Продолжительность: 01:39:40
✦ Перевод: Украинский (дублированный)
Субтитры: english

Режиссер: Крис Сандерс

В ролях: Карен Гиллан, Харрисон Форд, Кара Ги, Дэн Стивенс, Брэдли Уитфорд, Джин Луиса Келли, Уэс Браун, Терри Нотари, Омар Си, Колин Вуделл, Абрахам Бенруби

Описание: История Бэка, дружелюбного пса, чья размеренная домашняя жизнь перевернулась с ног на голову во времена золотой лихорадки в 1880-х, когда его вырвали из дома в Калифорнии и перевезли в дикую и холодную Аляску. Будучи новичком в упряжке почтовой службы, а впоследствии лидером, Бак попадает в невероятное приключение, находит свое место в мире и становится хозяином своей жизни.
rating


Качество: WEB-DL 1080p
Формат: MKV
Видео: AVC, 1920x800, 6 900 kb/s, 23.976 fps
Аудио 1: AC3, 2 ch, 192 Кбит/с - Ukr
Аудио 2: E-AC3, 6 ch, 640 Кбит/с - Eng
General
Complete name : The Call of the Wild (2020) WEB-DL 1080p {Ukr, Eng} [ViDeO_Hurtom].mkv
Format : Matroska
Format version : Version 4
File size : 5.37 GiB
Duration : 1 h 39 min
Overall bit rate : 7 718 kb/s
Movie name : Поклик пращурів / The Call of the Wild (2020)
Encoded date : UTC 2020-03-28 11:15:50
Writing application : mkvmerge v30.1.0 ('Forever And More') 64-bit
Writing library : libebml v1.3.6 + libmatroska v1.4.9
Cover : Yes
Attachments : cover.jpg

Video
ID : 1
Format : AVC
Format/Info : Advanced Video Codec
Format profile : High@L4
Format settings : CABAC / 4 Ref Frames
Format settings, CABAC : Yes
Format settings, RefFrames : 4 frames
Codec ID : V_MPEG4/ISO/AVC
Duration : 1 h 39 min
Bit rate mode : Constant
Bit rate : 6 883 kb/s
Nominal bit rate : 10 000 kb/s
Width : 1 920 pixels
Height : 800 pixels
Display aspect ratio : 2.40:1
Frame rate mode : Constant
Frame rate : 23.976 (24000/1001) FPS
Color space : YUV
Chroma subsampling : 4:2:0
Bit depth : 8 bits
Scan type : Progressive
Bits/(Pixel*Frame) : 0.187
Stream size : 4.79 GiB (89%)
Default : Yes
Forced : No
Color range : Limited
Color primaries : BT.709
Transfer characteristics : BT.709
Matrix coefficients : BT.709

Audio #1
ID : 2
Format : AC-3
Format/Info : Audio Coding 3
Commercial name : Dolby Digital
Codec ID : A_AC3
Duration : 1 h 39 min
Bit rate mode : Constant
Bit rate : 192 kb/s
Channel(s) : 2 channels
Channel layout : L R
Sampling rate : 48.0 kHz
Frame rate : 31.250 FPS (1536 SPF)
Bit depth : 16 bits
Compression mode : Lossy
Stream size : 137 MiB (2%)
Title : AC3 2.0 | 192
Language : Ukrainian
Service kind : Complete Main
Default : Yes
Forced : No

Audio #2
ID : 3
Format : E-AC-3
Format/Info : Enhanced AC-3
Commercial name : Dolby Digital Plus
Codec ID : A_EAC3
Duration : 1 h 39 min
Bit rate mode : Constant
Bit rate : 640 kb/s
Channel(s) : 6 channels
Channel layout : L R C LFE Ls Rs
Sampling rate : 48.0 kHz
Frame rate : 31.250 FPS (1536 SPF)
Compression mode : Lossy
Stream size : 456 MiB (8%)
Title : E-AC3 5.1 | 640
Language : English
Service kind : Complete Main
Default : No
Forced : No

Text #1
ID : 4
Format : UTF-8
Codec ID : S_TEXT/UTF8
Codec ID/Info : UTF-8 Plain Text
Duration : 1 h 38 min
Bit rate : 23 b/s
Count of elements : 805
Stream size : 17.0 KiB (0%)
Title : Full
Language : English
Default : No
Forced : No

Text #2
ID : 5
Format : UTF-8
Codec ID : S_TEXT/UTF8
Codec ID/Info : UTF-8 Plain Text
Duration : 1 h 39 min
Bit rate : 32 b/s
Count of elements : 1196
Stream size : 23.4 KiB (0%)
Title : SDH
Language : English
Default : No
Forced : No

Menu
00:00:00.000 : en:Studio Logo
00:00:48.000 : en:Buck is king
00:02:43.000 : en:Buck's behavior
00:04:12.000 : en:A turkey is ready
00:05:17.000 : en:Buck spends on the porch
00:07:14.000 : en:Locked in that box
00:09:55.000 : en:Skagway, Alaska
00:13:42.000 : en:Perrault finds Buck
00:14:52.000 : en:Buck joins the team
00:17:53.000 : en:Sleep in snow
00:20:31.000 : en:Doing the work of a sled dog
00:26:04.000 : en:Spitz is not pleased
00:32:21.000 : en:Who leads the team
00:36:23.000 : en:Buck finds a way
00:38:42.000 : en:What they carry
00:41:36.000 : en:John remembers Buck
00:43:27.000 : en:Buck loses his master
00:45:53.000 : en:New owner
00:48:59.000 : en:John heads to Buck
00:53:00.000 : en:John is at bar
00:57:41.000 : en:John talks about his son
01:02:07.000 : en:Adventure with Buck
01:05:09.000 : en:Hal comes to John's place
01:13:08.000 : en:Buck finds friends
01:17:12.000 : en:Buck still comes back to John
01:20:22.000 : en:John is leaving
01:23:36.000 : en:Buck comes back
01:29:15.000 : en:Buck becomes his own master
01:32:16.000 : en:End Credits
скриншот  скриншот  скриншот  
piratbit.org



Скачать Зов предков через торрент https://i111.fastpic.ru/big/2020/0329/a2/24430e65c4a03e2095cdb5d3b0c857a2.jpg Скачать фильм Зов предков через торрент бесплантно в хорошем качестве Описание: История Бэка, дружелюбного пса, чья размеренная домашняя жизнь перевернулась с ног на голову во времена золотой лихорадки в ... 7 10 6
Info! Золотая раздача, скачанное не засчитывается.
Торрент: Зарегистрирован [2020-03-29 09:45] · скачан: 58 раз
Статус: T временная
Размер: 5.37 GB
Как cкачать? Как скачать Зов предков через торрент | UTorrent

% Раздел Тема Автор DL S | L
Фильмы (HD 720p, 1080p) (48-60 fps) [ 2.71 GB ] Зов предков / The Call of the Wild [2020 BDRip - HEVC 1080p 10 bit 60 FPS] dd2d3 Скачать
5 | 0
Ultra HD (UHD: 2K, 4K, 8K) — видео сверхвысокой чёткости [ 10.46 GB ] Зов предков / The Call of the Wild [2020 UHD BDRip 2160p] +MVO [HDRezka Studio] bober100 Скачать
5 | 0
Ultra HD (UHD: 2K, 4K, 8K) — видео сверхвысокой чёткости [ 48.79 GB ] Зов предков / The Call of the Wild [2020 UHD BDRemux 2160p] +MVO [HDRezka Studio] bober100 Скачать
2 | 0
Фильмы [HD 720p, 1080p] (Хороший звук DUB, MVO) [ 9.11 GB ] Зов предков / The Call of the Wild [2020 BDRip 1080p] +MVO [HDRezka Studio] bober100 Скачать
7 | 0
Фильмы 2019-2020 [DVDrip, WEB-DLRip, HDrip] (DUB, MVO) [ 1.41 GB ] Зов предков / The Call of the Wild [2020 BDRip-AVC] bober100 Скачать
3 | 0
Фильмы 2019-2020 [DVDrip, WEB-DLRip, HDrip] (DUB, MVO) [ 1.42 GB ] Зов предков / The Call of the Wild [2020 BDRip] - Twi7ter Скачать
199 | 1
Фильмы 2019-2020 [DVDrip, WEB-DLRip, HDrip] (DUB, MVO) [ 2.85 GB ] Зов предков / The Call of the Wild [2020 BDRip-AVC] +MVO [HDRezka Studio] bober100 Скачать
4 | 0

28-11-2019 20:33  

Отключить всю рекламу на сайте

    Дорогой пользователь! Огромная просьба, поблагодарите релизера, оцените раздачу и оставьте свои комментарий, если Вы скачали Зов предков через торрент бесплатно! Внесите свою лепту в развитие PiratBit!
    Комментировать посты могут только пользователи прошедшие не сложную регистрацию
    Показать сообщения:    

    Зов предков через торрент
    Скачать бесплатно Зов предков
    Зов предков скачать торрент
    Зов предков смотреть онлайн
    Cкачать фильм Зов предков бесплатно
    Зов предков скачать торрент в хорошем качестве
    Зов предков смотреть онлайн бесплатно в хорошем качестве


    Вы не можете начинать темы
    Вы не можете отвечать на сообщения
    Вы не можете редактировать свои сообщения
    Вы не можете удалять свои сообщения
    Вы не можете голосовать в опросах
    Вы не можете прикреплять файлы к сообщениям
    Вы можете скачивать файлы