Достать ножи: Стеклянная луковица

MVO

Добыча

Дубляж

Уэнсдэй

1 сезон

Тор

Дубляж

13 клиническая

1 сезон

Жестокая ночь

MVO

Одни из нас

1 сезон

Deluxe

pack

Рекомендуем

30

Пиратка

ВАЖНО

ВАЖНО

Ghostwire

Пиратка

jed

RePack

nioh2

RePack

RDR2

RePack

NEED FOR SPEED™ PAYBACK

RePack

скачать торрент

Кинопоиск HD

Острые козырьки 6 сезон

6 сезон

FAR CRY 6

RePack

скачать торрент

Лицензия

скачать торрент

MVO

1

1 сезон

скачать торрент

1 сезон

скачать торрент

Лицензия

  

Звездные войны: Эпизод 1 - Скрытая угроза / Star Wars: Episode I - The Phantom Menace (Джордж Лукас) [1999, Фантастика, боевик, приключения, UHD BDRemux 2160p] Дубляж [Лицензия]

Звездные войны: Эпизод 1 - Скрытая угроза через торрент piratbit.org

Размер: 48.5 GB | Добавлен: 2 года 9 мес. назад | Торрент скачан:219 раз
Смотреть онлайн | Скачать | Поддержите нас   

29-03-2020 17:09 Звездные войны: Эпизод 1 - Скрытая угроза Скачать торрент  

Звездные войны: Эпизод 1 - Скрытая угроза | Star Wars: Episode I - The Phantom Menace
Год выпуска: 1999
Страна: США
Студия: Lucasfilm Ltd.
Жанр: Фантастика, боевик, приключения
Продолжительность: 02:16:11
Перевод: Дублированный | Лицензия
Субтитры: Русские (Forced, full), английские

Режиссер: Джордж Лукас

rating

В ролях: Лиам Нисон, Эван МакГрегор, Натали Портман, Джейк Ллойд, Иэн МакДайармид, Пернилла Аугуст, Оливер Форд Дэвис, Хью Куарши, Ахмед Бест, Энтони Дэниелс, Кенни Бэйкер, Фрэнк Оз, Теренс Стэмп, Брайан Блессид, Эндрю Сиком, Рэй Парк, Льюис Маклауд, Уорвик Дэвис, Стив Спайрс, Сайлас Карсон, Джером Блейк, Алан Раскоу, Ральф Браун, Селия Имри, Бенедикт Тейлор, Кларенс Смит, Сэмюэл Л. Джексон, Доминик Уэст

Описание: Давным-давно, в далёкой-далёкой галактике наступили нелёгкие времена. Галактическая Республика находится в политическом кризисе. В результате конфликта интересов Торговой Федерации и Сената Республики под опалу попадает маленькая планета Набу. Для урегулирования конфликта туда посылаются двое рыцарей-джедаев: учитель Квай-Гон Джин и его падаван Оби-Ван Кеноби; однако конфликт должен состояться по плану тёмного владыки ситхов Дарта Сидиуса, и на планету обрушивается полномасштабное вторжение. Джедаи спасают королеву Амидалу и покидают Набу, чтобы добраться до столицы Республики – планеты Корусант, в Сенат. Наши герои совершают вынужденную посадку на песчаной планете Татуин. Там Квай-Гон находит мальчика. Он отзывчив, умён и талантлив; он сын рабыни, рождённый живительным воздействием Силы, течение которой в нём необычайно велико и его зовут – Энакин Скайуокер. Мальчик, побеждая в гонках на карах, выручает наших героев и покидает с ними родную планету освобождённым… Галактический сенат погряз в коррупции и бюрократии и не в силах помочь Набу. Через вотум недоверия к действующему канцлеру на его место вступает представитель опальной планеты -сенатор Палпатин. Совет джедаев встревожен нарастанием Тёмной стороны Силы, возрождением ордена ситхов и не рад появлению Энакина, в котором наравне с присутствием Силы поселился страх. Тьма сгущается и набирает силу, появляется СКРЫТАЯ УГРОЗА наступления звёздных войн.

Качество: UHD BDRemux 2160p
Формат: MKV

Видео: 3840x2160 at 23.976 fps, MPEG-H HEVC HDR Video, 70100 kbps avg
Аудио #01: 48 kHz, DTS, 5.1, 768 Kbps | Лицензия | RUS |
Аудио #02: 48 kHz, AC3, 5.1, 448 Kbps | Лицензия | RUS |
Аудио #03: 48 kHz, TrueHD, 7.1, 4271 Kbps | Оригинал | ENG |
Аудио #04: 48 kHz, AC3, 5.1, 640 Kbps | Оригинал | ENG |
скриншот  скриншот  скриншот  скриншот  скриншот  

General
Unique ID : 196660190228167399213891816129118883871 (0x93F35FFAF30274E7CA753011C5AC501F)
Complete name : E:Video111Star.Wars.Episode.I.The.Phantom.Menace.1999.BDREMUX.2160p.HDR.seleZen.mkv
Format : Matroska
Format version : Version 4
File size : 48.5 GiB
Duration : 2 h 16 min
Overall bit rate mode : Variable
Overall bit rate : 51.0 Mb/s
Movie name : Star Wars Episode I The Phantom Menace 1999 from селезень
Encoded date : UTC 2020-03-29 16:37:13
Writing application : mkvmerge v40.0.0 ('Old Town Road + Pony') 64-bit
Writing library : libebml v1.3.9 + libmatroska v1.5.2

Video
ID : 1
Format : HEVC
Format/Info : High Efficiency Video Coding
Format profile : Main 10@L5.1@High
HDR format : SMPTE ST 2086, HDR10 compatible
Codec ID : V_MPEGH/ISO/HEVC
Duration : 2 h 16 min
Bit rate : 44.8 Mb/s
Width : 3 840 pixels
Height : 2 160 pixels
Display aspect ratio : 16:9
Frame rate mode : Constant
Frame rate : 23.976 (24000/1001) FPS
Color space : YUV
Chroma subsampling : 4:2:0 (Type 2)
Bit depth : 10 bits
Bits/(Pixel*Frame) : 0.225
Stream size : 42.6 GiB (88%)
Writing library : ATEME Titan File 3.9.0 (4.9.0.0)
Language : English
Default : Yes
Forced : No
Color range : Limited
Color primaries : BT.2020
Transfer characteristics : PQ
Matrix coefficients : BT.2020 non-constant
Mastering display color pri : BT.2020
Mastering display luminance : min: 0.0001 cd/m2, max: 1000 cd/m2

Audio #1
ID : 2
Format : DTS
Format/Info : Digital Theater Systems
Codec ID : A_DTS
Duration : 2 h 16 min
Bit rate mode : Constant
Bit rate : 768 kb/s
Channel(s) : 6 channels
Channel layout : C L R Ls Rs LFE
Sampling rate : 48.0 kHz
Frame rate : 93.750 FPS (512 SPF)
Bit depth : 24 bits
Compression mode : Lossy
Stream size : 748 MiB (2%)
Title : Дубляж [License]
Language : Russian
Default : Yes
Forced : Yes

Audio #2
ID : 3
Format : AC-3
Format/Info : Audio Coding 3
Commercial name : Dolby Digital
Codec ID : A_AC3
Duration : 2 h 16 min
Bit rate mode : Constant
Bit rate : 448 kb/s
Channel(s) : 6 channels
Channel layout : L R C LFE Ls Rs
Sampling rate : 48.0 kHz
Frame rate : 31.250 FPS (1536 SPF)
Compression mode : Lossy
Stream size : 436 MiB (1%)
Title : Дубляж [License]
Language : Russian
Service kind : Complete Main
Default : No
Forced : No

Audio #3
ID : 4
Format : MLP FBA 16-ch
Format/Info : Meridian Lossless Packing FBA with 16-channel presentation
Commercial name : Dolby TrueHD with Dolby Atmos
Codec ID : A_TRUEHD
Duration : 2 h 16 min
Bit rate mode : Variable
Bit rate : 4 271 kb/s
Maximum bit rate : 5 580 kb/s
Channel(s) : 8 channels
Channel layout : L R C LFE Ls Rs Lb Rb
Sampling rate : 48.0 kHz
Frame rate : 1 200.000 FPS (40 SPF)
Compression mode : Lossless
Stream size : 4.06 GiB (8%)
Title : Original
Language : English
Default : No
Forced : No
Number of dynamic objects : 13
Bed channel count : 1 channel
Bed channel configuration : LFE

Audio #4
ID : 5
Format : AC-3
Format/Info : Audio Coding 3
Commercial name : Dolby Digital
Codec ID : A_AC3
Duration : 2 h 16 min
Bit rate mode : Constant
Bit rate : 640 kb/s
Channel(s) : 6 channels
Channel layout : L R C LFE Ls Rs
Sampling rate : 48.0 kHz
Frame rate : 31.250 FPS (1536 SPF)
Compression mode : Lossy
Stream size : 623 MiB (1%)
Language : English
Service kind : Complete Main
Default : No
Forced : No

Text #1
ID : 6
Format : UTF-8
Codec ID : S_TEXT/UTF8
Codec ID/Info : UTF-8 Plain Text
Duration : 26 min 44 s
Bit rate : 7 b/s
Count of elements : 31
Stream size : 1.49 KiB (0%)
Title : Forced
Language : Russian
Default : Yes
Forced : Yes

Text #2
ID : 7
Format : UTF-8
Codec ID : S_TEXT/UTF8
Codec ID/Info : UTF-8 Plain Text
Duration : 2 h 7 min
Bit rate : 88 b/s
Count of elements : 1440
Stream size : 82.9 KiB (0%)
Title : Full
Language : Russian
Default : No
Forced : No

Text #3
ID : 8
Format : UTF-8
Codec ID : S_TEXT/UTF8
Codec ID/Info : UTF-8 Plain Text
Duration : 2 h 14 min
Bit rate : 54 b/s
Count of elements : 1656
Stream size : 53.8 KiB (0%)
Title : Full
Language : English
Default : No
Forced : No

Menu
00:00:00.000 : en:Глава 01
00:00:21.772 : en:Глава 02
00:01:53.405 : en:Глава 03
00:07:56.017 : en:Глава 04
00:09:56.638 : en:Глава 05
00:11:19.429 : en:Глава 06
00:13:24.846 : en:Глава 07
00:14:50.473 : en:Глава 08
00:17:14.909 : en:Глава 09
00:20:41.615 : en:Глава 10
00:22:25.970 : en:Глава 11
00:25:13.554 : en:Глава 12
00:29:33.480 : en:Глава 13
00:31:42.150 : en:Глава 14
00:35:52.400 : en:Глава 15
00:40:49.238 : en:Глава 16
00:44:16.988 : en:Глава 17
00:52:05.247 : en:Глава 18
00:55:04.509 : en:Глава 19
00:58:28.588 : en:Глава 20
01:02:28.369 : en:Глава 21
01:05:33.680 : en:Глава 22
01:10:07.578 : en:Глава 23
01:11:18.608 : en:Глава 24
01:16:21.619 : en:Глава 25
01:18:08.767 : en:Глава 26
01:20:27.030 : en:Глава 27
01:24:18.845 : en:Глава 28
01:26:45.450 : en:Глава 29
01:29:55.390 : en:Глава 30
01:31:03.082 : en:Глава 31
01:33:09.208 : en:Глава 32
01:37:22.086 : en:Глава 33
01:39:06.983 : en:Глава 34
01:42:34.398 : en:Глава 35
01:44:42.234 : en:Глава 36
01:46:19.915 : en:Глава 37
01:48:08.398 : en:Глава 38
01:50:25.619 : en:Глава 39
01:56:48.335 : en:Глава 40
01:59:13.730 : en:Глава 41
02:00:32.058 : en:Глава 42
02:01:21.983 : en:Глава 43
02:02:24.045 : en:Глава 44
02:03:57.638 : en:Глава 45
02:05:15.800 : en:Глава 46
02:06:26.662 : en:Глава 47
02:07:23.844 : en:Глава 48
02:08:29.660 : en:Глава 49
02:09:54.203 : en:Глава 50




Скачать Звездные войны: Эпизод 1 - Скрытая угроза через торрент https://img10.lostpic.net/2020/03/29/79c9c01979e1650a96bc94445322135a.jpg Скачать, смотреть онлайн Звездные войны: Эпизод 1 - Скрытая угроза бесплантно в хорошем качестве Описание: Давным-давно, в далёкой-далёкой галактике наступили нелёгкие времена. Галактическая Республика находится в политическом кризисе. ... 10 10 7
Info! Золотая раздача, скачанное не засчитывается.
Торрент: Зарегистрирован [2020-03-29 17:09] · скачан: 219 раз
Статус: √ проверено
Размер: 48.5 GB
Как cкачать? Как скачать Звездные войны: Эпизод 1 - Скрытая угроза через торрент | UTorrent

% Раздел Тема Автор DL S | L
Фильмы до 2000 г. [ 3.84 GB ] Звездные войны. Эпизод 1: Скрытая угроза / Star Wars: Episode I - The Phantom Menace | Дубляж BD CEE | BDRip-AVC, Дубляж BD CEE, 4 x AVO morfyi Скачать
2 | 0
# Фильмы до 2000 г. [ 1.89 GB ] Звездные войны: Эпизод 1 - Скрытая угроза / Star Wars: Episode I - The Phantom Menace | DUB | Звездные войны: Эпизод 1 - Скрытая угроза / Star Wars: Episode I - The Phantom Menace (Джордж Лукас / George Lucas killermax2013 Скачать
1 | 0
Фильмы (DVD фильмы) [ 7.65 GB ] Звездные войны: эпизод 1 - Скрытая угроза / Star Wars: Episode I - The Phantom Menace | | Звездные войны: эпизод 1 - Скрытая угроза / Star Wars: Episode I - The Phantom Menace (Джордж Лукас ValeraTerechenko Скачать
1 | 0

28-11-2019 20:33  


Отключить вcю реклaмy на сайте, в т.ч. и в плеере онлайн просмотра!

    Дорогой пользователь! Огромная просьба, поблагодарите релизера, оцените раздачу и оставьте свои комментарий, если Вы скачали Звездные войны: Эпизод 1 - Скрытая угроза через торрент бесплатно!!
    Комментировать посты могут только пользователи прошедшие не сложную регистрацию
    Показать сообщения:    


    Звездные войны: Эпизод 1 - Скрытая угроза через торрент
    Скачать бесплатно Звездные войны: Эпизод 1 - Скрытая угроза
    Звездные войны: Эпизод 1 - Скрытая угроза скачать торрент
    Звездные войны: Эпизод 1 - Скрытая угроза смотреть онлайн
    Cкачать фильм Звездные войны: Эпизод 1 - Скрытая угроза бесплатно
    Звездные войны: Эпизод 1 - Скрытая угроза скачать торрент в хорошем качестве
    Звездные войны: Эпизод 1 - Скрытая угроза смотреть онлайн бесплатно в хорошем качестве
    Вы не можете начинать темы
    Вы не можете отвечать на сообщения
    Вы не можете редактировать свои сообщения
    Вы не можете удалять свои сообщения
    Вы не можете голосовать в опросах
    Вы не можете прикреплять файлы к сообщениям
    Вы можете скачивать файлы
    Звездные войны: Эпизод 1 - Скрытая угроза / Star Wars: Episode I - The Phantom Menace [1999, Фантастика, боевик, приключения, UHD BDRemux 2160p] Дубляж [Лицензия] смотреть онлайн, скачать торрент picoco.icu