1 сезон

1 сезон

iTunes

1

КиноПоиск HD

Кинопоиск HD

iTunes

13

1 сезон

RePack

30

Ultimate

ВАЖНО

ИГРА 18+

pack

RePack

MK11
pack

Легкие деньги

RePack

jed

RePack

fifa19

RePack

RDR2

RePack

NEED FOR SPEED™ PAYBACK

4 сезон

9 сезон

Бесстыжие 9 сезон

Все сериалы

все сериалы на PB.wtf

RePack

FAR CRY 5
  
Magnet ссылка

Сестра Урсулы / La sorella di Ursula (Энцо Мильони) [1978, драма, ужасы, детектив, триллер, BDRip 720p by msltel] VO piratbit.org

Сестра Урсулы через торрент piratbit.org

Размер: 3.86 GB | Добавлен: 1 год назад | Торрент скачан:3 раза
Скачать  

30-03-2020 06:07 Сестра Урсулы Скачать торрент  

Название: Сестра Урсулы
Оригинальное название: La sorella di Ursula
Год выпуска: 1978
Страна: Италия
Жанр: драма, ужасы, детектив, триллер
Продолжительность: 01:34:53
Перевод: любительский одноголосый
Режиссер: Энцо Мильони
В ролях: Барбара Магнолфи, Стефания Д'Амарио, Ванни Матерасси, Марк Порель, Анна Зиннеманн, Ивонн Харлоу, Джанкарло Занетти, Элис Герарди

О фильме: Две сестры, Урсула и Дагмар Бейн, приезжают в отпуск в Амальфи на побережье Италии в надежде найти свою мать, которая бросила их, когда они были ещё детьми. После смерти своего отца они унаследовали деньги и хотят поделиться ими со своей матерью. Урсула - хрупкая девушка, потерявшая покой после того, как отец умер. У неё есть сверхъестественные способности - она предчувствует плохие события и поэтому просит сестру держаться подальше от Филиппо, человека, который скрывается от посторонних глаз в ночном клубе отеля, так как, по её словам, он вскоре убьёт её. Филиппо - наркоман и любовник местной певички Стеллы Шайнинг, но отношения их не клеятся, и Филиппо обращает своё внимание на Дагмар. Тем временем, некто в маске и кожаных перчатках нанимает местную проститутку - ему нравится смотреть, как она занимается любовью с другим человеком. Когда дело сделано, незнакомец жестоко убивает проститутку. Урсула просыпается с криком, почувствовав, что случилось нечто плохое, и умоляет Дагмар покинуть это место, пока ещё не слишком поздно, но сестра хочет остаться... Череда шокирующих убийств продолжается, так же как и поиск неистового убийцы...



Качество: BDRip 720p
Формат: MKV
Видео: MPEG-4 AVC, 5437 Кбит/с, 1280x690, 23.976 Кадр/с
Аудио 1: русский, AC3, 192 kbps, 2 ch, 48 kHz [закадровый одноголосый, Nikita1976]
Аудио 2: итальянский, AC3, 192 kbps, 2 ch, 48 kHz [оригинал]
Субтитры 1: русские
Субтитры 2: английские
Главы/чаптеры
Общее
Уникальный идентификатор : 197522335358107556715266999922492650703 (0x94996B0459F7F73D9BD3A044520734CF)
Полное имя : D:\Video\Сестра Урсулы.1978.BDRip 720p by msltel.mkv
Формат : Matroska
Версия формата : Version 4
Размер файла : 3,86 Гбайт
Продолжительность : 1 ч. 34 м.
Общий поток : 5823 Кбит/сек
Название фильма : Rip by msltel
Дата кодирования : UTC 2020-03-29 15:44:07
Программа кодирования : mkvmerge v8.2.0 ('World of Adventure') 64bit
Библиотека кодирования : libebml v1.3.1 + libmatroska v1.4.2

Видео
Идентификатор : 1
Формат : AVC
Формат/Информация : Advanced Video Codec
Профиль формата : High@L4.1
Настройки формата : CABAC / 9 Ref Frames
Параметр CABAC формата : Да
Параметр RefFrames формата : 9 кадров
Идентификатор кодека : V_MPEG4/ISO/AVC
Продолжительность : 1 ч. 34 м.
Битрейт : 5437 Кбит/сек
Ширина : 1280 пикселей
Высота : 690 пикселей
Соотношение сторон : 1,85:1
Режим частоты кадров : Постоянный
Частота кадров : 23,976 (24000/1001) кадра/сек
Цветовое пространство : YUV
Субдискретизация насыщенности : 4:2:0
Битовая глубина : 8 бит
Тип развёртки : Прогрессивная
Бит/(Пиксели*Кадры) : 0.257
Размер потока : 3,60 Гбайт (93%)
Библиотека кодирования : x264 core 159 r2991 1771b55
Настройки программы : cabac=1 / ref=9 / deblock=1:-2:-2 / analyse=0x3:0x113 / me=umh / subme=11 / psy=1 / psy_rd=1.00:0.15 / mixed_ref=1 / me_range=32 / chroma_me=1 / trellis=2 / 8x8dct=1 / cqm=0 / deadzone=21,11 / fast_pskip=0 / chroma_qp_offset=-3 / threads=6 / lookahead_threads=1 / sliced_threads=0 / nr=0 / decimate=1 / interlaced=0 / bluray_compat=0 / constrained_intra=0 / bframes=6 / b_pyramid=2 / b_adapt=2 / b_bias=0 / direct=1 / weightb=1 / open_gop=0 / weightp=2 / keyint=230 / keyint_min=23 / scenecut=40 / intra_refresh=0 / rc_lookahead=40 / rc=crf / mbtree=1 / crf=18.5 / qcomp=0.60 / qpmin=0 / qpmax=69 / qpstep=4 / vbv_maxrate=50000 / vbv_bufsize=62500 / crf_max=0.0 / nal_hrd=none / filler=0 / ip_ratio=1.40 / aq=1:1.00
Язык : Italian
Default : Да
Forced : Нет

Аудио #1
Идентификатор : 2
Формат : AC-3
Формат/Информация : Audio Coding 3
Коммерческое название : Dolby Digital
Идентификатор кодека : A_AC3
Продолжительность : 1 ч. 34 м.
Вид битрейта : Постоянный
Битрейт : 192 Кбит/сек
Каналы : 2 канала
ChannelLayout : L R
Частота : 48,0 КГц
Частота кадров : 31,250 кадров/сек (1536 SPF)
Метод сжатия : С потерями
Размер потока : 130 Мбайт (3%)
Заголовок : Nikita1976
Язык : Russian
ServiceKind/String : Complete Main
Default : Да
Forced : Нет

Аудио #2
Идентификатор : 3
Формат : AC-3
Формат/Информация : Audio Coding 3
Коммерческое название : Dolby Digital
Идентификатор кодека : A_AC3
Продолжительность : 1 ч. 34 м.
Вид битрейта : Постоянный
Битрейт : 192 Кбит/сек
Каналы : 2 канала
ChannelLayout : L R
Частота : 48,0 КГц
Частота кадров : 31,250 кадров/сек (1536 SPF)
Метод сжатия : С потерями
Размер потока : 130 Мбайт (3%)
Заголовок : original
Язык : Italian
ServiceKind/String : Complete Main
Default : Нет
Forced : Нет

Текст #1
Идентификатор : 4
Формат : UTF-8
Идентификатор кодека : S_TEXT/UTF8
Идентификатор кодека/Информация : UTF-8 Plain Text
Продолжительность : 1 ч. 33 м.
Битрейт : 64 бит/сек
ElementCount : 644
Размер потока : 44,1 Кбайт (0%)
Заголовок : русские Dezz
Язык : Russian
Default : Нет
Forced : Нет

Текст #2
Идентификатор : 5
Формат : UTF-8
Идентификатор кодека : S_TEXT/UTF8
Идентификатор кодека/Информация : UTF-8 Plain Text
Продолжительность : 1 ч. 31 м.
Битрейт : 38 бит/сек
ElementCount : 642
Размер потока : 25,6 Кбайт (0%)
Заголовок : английские
Язык : English
Default : Нет
Forced : Нет

Меню
00:00:00.000 : en:Chapter 01
00:04:27.642 : en:Chapter 02
00:09:53.635 : en:Chapter 03
00:15:51.826 : en:Chapter 04
00:20:39.655 : en:Chapter 05
00:26:11.862 : en:Chapter 06
00:33:05.150 : en:Chapter 07
00:39:18.856 : en:Chapter 08
00:45:42.281 : en:Chapter 09
00:51:52.151 : en:Chapter 10
00:58:33.427 : en:Chapter 11
01:03:15.583 : en:Chapter 12
01:11:06.053 : en:Chapter 13
01:15:55.634 : en:Chapter 14
01:22:00.249 : en:Chapter 15
01:27:58.190 : en:Chapter 16
piratbit.org



Скачать Сестра Урсулы через торрент https://c.radikal.ru/c03/2003/f9/0c2cb7193c14.jpg Скачать фильм Сестра Урсулы через торрент бесплантно в хорошем качестве О фильме: Две сестры, Урсула и Дагмар Бейн, приезжают в отпуск в Амальфи на побережье Италии в надежде найти свою мать, которая бросила их, ... 5 10 1
Info! Золотая раздача, скачанное не засчитывается.
Торрент: Зарегистрирован [2020-03-30 06:07] · скачан: 3 раз
Статус: √ проверено
Размер: 3.86 GB
Как cкачать? Как скачать Сестра Урсулы через торрент | UTorrent

% Раздел Тема Автор DL S | L
Арт-хаус и авторское кино [ 11.02 GB ] Сестра Урсулы / La sorella di Ursula [1978 BDRip 1080p by msltel] VO msltel Скачать
1 | 0
Арт-хаус и авторское кино [ 2.22 GB ] Сестра Урсулы / La sorella di Ursula [1978 BDRip-AVC by msltel] VO msltel Скачать
1 | 0

28-11-2019 20:33  

Отключить всю рекламу на сайте

    Дорогой пользователь! Огромная просьба, поблагодарите релизера, оцените раздачу и оставьте свои комментарий, если Вы скачали Сестра Урсулы через торрент бесплатно! Внесите свою лепту в развитие PiratBit!
    Комментировать посты могут только пользователи прошедшие не сложную регистрацию
    Показать сообщения:    

    Сестра Урсулы через торрент
    Скачать бесплатно Сестра Урсулы
    Сестра Урсулы скачать торрент
    Сестра Урсулы смотреть онлайн
    Cкачать фильм Сестра Урсулы бесплатно
    Сестра Урсулы скачать торрент в хорошем качестве
    Сестра Урсулы смотреть онлайн бесплатно в хорошем качестве


    Вы не можете начинать темы
    Вы не можете отвечать на сообщения
    Вы не можете редактировать свои сообщения
    Вы не можете удалять свои сообщения
    Вы не можете голосовать в опросах
    Вы не можете прикреплять файлы к сообщениям
    Вы можете скачивать файлы